<?xml version="1.0" standalone="no"?>
<!DOCTYPE svg PUBLIC "-//W3C//DTD SVG 1.1//EN" "http://www.w3.org/Graphics/SVG/1.1/DTD/svg11.dtd" >
<svg xmlns="http://www.w3.org/2000/svg">
<metadata></metadata>
<defs>
<font id="sukhumvitlight" horiz-adv-x="976" >
<font-face units-per-em="2048" ascent="1638" descent="-410" />
<missing-glyph horiz-adv-x="589" />
<glyph unicode="&#xe2f;&#xe2f;" horiz-adv-x="1394" d="M90 971v63h111v-49q0 -111 71 -178.5t189 -67.5q121 0 208 84.5t87 182.5v28h108v-295q130 0 227 84.5t97 182.5v28h108v-1034h-114v799h-6q-31 -70 -121.5 -113t-190.5 -43v-643h-114v799h-7q-31 -70 -118.5 -114t-184.5 -44q-161 0 -255.5 90.5t-94.5 239.5z" />
<glyph unicode="&#xe4f;&#x22;" horiz-adv-x="1052" d="M135 410q0 164 116.5 280.5t280.5 116.5t281 -116.5t117 -280.5q0 -166 -117 -283t-281 -117t-280.5 117t-116.5 283zM197 410q0 -140 98 -239t237 -99t237.5 99t98.5 239q0 138 -98.5 236.5t-237.5 98.5t-237 -98.5t-98 -236.5zM301 408q0 96 67.5 163.5t161.5 67.5 q96 0 164 -67.5t68 -161.5q0 -96 -68 -164t-162 -68q-96 0 -163.5 68t-67.5 162zM328 893v354h110v-354h-110zM360 408q0 -70 50 -120t122 -50q69 0 118.5 50t49.5 122q0 69 -50 118.5t-120 49.5q-69 0 -119.5 -50t-50.5 -120zM639 893v354h113v-354h-113z" />
<glyph unicode="&#xe24;&#xe32;" horiz-adv-x="1777" d="M92 774q40 119 161.5 202t281.5 83q117 0 212 -46.5t150 -127.5q69 77 170.5 125.5t226.5 48.5q164 0 272.5 -104.5t108.5 -264.5v-1100h-116v1090q0 130 -69 202t-194 72q-103 0 -196.5 -42t-159.5 -117q16 -53 16 -105v-1100h-116v1090q0 131 -82.5 204.5t-222.5 73.5 q-113 0 -195 -50.5t-129 -137.5q8 -9 21.5 -23t42 -44l47.5 -50t18 -20q-98 -68 -98 -170v-303q0 -28 17.5 -45t51.5 -17h45v-98h-96q-54 0 -94.5 44t-40.5 110v282q0 54 27.5 112.5t72.5 86.5z" />
<glyph unicode="&#xe26;&#xe32;" horiz-adv-x="1818" d="M68 0v98h38q64 0 64 62v276q0 55 25.5 113t70.5 86l-133 139q40 119 161 202t281 83q117 0 212.5 -46.5t150.5 -127.5q69 77 170.5 125.5t226.5 48.5q164 0 272.5 -104.5t108.5 -264.5v-1100h-117v1090q0 130 -68.5 202t-193.5 72q-103 0 -196.5 -42t-159.5 -117 q16 -53 16 -105v-1100h-116v1090q0 130 -83 204t-223 74q-113 0 -194.5 -50.5t-128.5 -137.5q8 -9 21.5 -23t42 -44l47.5 -50t18 -20q-94 -65 -94 -170v-318q0 -62 -35.5 -103.5t-87.5 -41.5h-96z" />
<glyph unicode="fi" horiz-adv-x="962" d="M29 811v96h182v66q0 38 0.5 63t3 60.5t7 59.5t13 53.5t20.5 49t30 39.5t41.5 31.5t55 19t69.5 7.5q69 0 106 -29l-8 -86q-40 19 -88 19q-37 0 -63 -14t-40 -33.5t-22 -51.5t-10 -58.5t-2 -62.5v-133h204v-96h-204v-811h-113v811h-182zM715 0v907h110v-907h-110zM715 1149 v149h110v-149h-110z" />
<glyph unicode="fl" horiz-adv-x="962" d="M29 811v96h182v66q0 38 0.5 63t3 60.5t7 59.5t13 53.5t20.5 49t30 39.5t41.5 31.5t55 19t69.5 7.5q69 0 106 -29l-8 -86q-40 19 -88 19q-37 0 -63 -14t-40 -33.5t-22 -51.5t-10 -58.5t-2 -62.5v-133h204v-96h-204v-811h-113v811h-182zM715 0v1335h110v-1335h-110z" />
<glyph unicode=" "  horiz-adv-x="589" />
<glyph unicode="&#x09;" horiz-adv-x="589" />
<glyph unicode="&#xa0;" horiz-adv-x="589" />
<glyph unicode="!" horiz-adv-x="679" d="M268 0v150h123v-150h-123zM268 301v942h123v-942h-123z" />
<glyph unicode="&#x22;" d="M313 854v389h111v-389h-111zM553 854v389h113v-389h-113z" />
<glyph unicode="#" d="M55 389v96h197l39 271h-191v96h203l55 391h109l-55 -391h231l55 391h109l-55 -391h172v-96h-185l-37 -271h170v-96h-184l-55 -389h-109l56 389h-232l-55 -389h-109l56 389h-185zM362 485h232l37 271h-232z" />
<glyph unicode="$" d="M145 940q0 127 85 211t221 106v115h92v-108q118 0 239 -41l-20 -113q-81 44 -219 47v-471q52 -26 88 -47t78.5 -54.5t68 -67.5t43 -82.5t17.5 -104.5q0 -73 -24 -133t-66 -100.5t-93 -66.5t-112 -40v-148h-92v138h-21q-186 3 -280 53l12 125q107 -72 274 -72q9 0 15 2 v510q-21 14 -57 36.5t-54.5 34.5t-47 32t-43.5 33t-35 32.5t-30 36.5t-20.5 39t-14.5 46t-4 52zM268 944q0 -109 183 -209v414q-80 -16 -131.5 -68t-51.5 -137zM543 102q78 23 123.5 83t48.5 155q-3 62 -47 111.5t-125 95.5v-445z" />
<glyph unicode="%" horiz-adv-x="1767" d="M180 922q0 153 69.5 243t213.5 90t213 -90t69 -243q0 -154 -69 -244t-213 -90t-213.5 90.5t-69.5 243.5zM293 922q0 -63 14.5 -113.5t54.5 -87.5t101 -37t101 37t54.5 87.5t14.5 113.5t-14.5 113.5t-54.5 87t-101 36.5t-101 -36.5t-54.5 -87t-14.5 -113.5zM463 -39 l735 1321h105l-736 -1321h-104zM1022 319q0 153 69.5 243.5t213.5 90.5t213 -90t69 -244q0 -153 -69 -243t-213 -90t-213.5 90t-69.5 243zM1135 319q0 -63 14.5 -113.5t54.5 -87t101 -36.5t101 36.5t54.5 87t14.5 113.5t-14.5 113.5t-54.5 87.5t-101 37t-101 -37 t-54.5 -87.5t-14.5 -113.5z" />
<glyph unicode="&#x26;" horiz-adv-x="1175" d="M82 326q0 252 295 360q-55 63 -82.5 98.5t-53.5 93.5t-26 115q0 85 47 147.5t121.5 93t165.5 30.5q126 0 209.5 -66.5t83.5 -189.5q0 -45 -11 -83.5t-34 -70t-46.5 -55.5t-62 -48t-65 -39t-70.5 -37q-7 -3 -10 -5l327 -365q107 171 107 377h106q0 -251 -139 -449 l211 -229h-156l-131 139q-153 -163 -370 -163q-85 0 -158.5 20.5t-132 61t-92 108.5t-33.5 156zM205 332q3 -120 87 -189t202 -69q84 0 167 40t140 105l-363 399q-98 -40 -164 -115t-69 -171zM338 985q0 -63 37.5 -123.5t101.5 -128.5q131 65 186 122t56 132 q0 87 -46.5 133.5t-129.5 46.5q-91 0 -148 -47.5t-57 -134.5z" />
<glyph unicode="'" horiz-adv-x="483" d="M186 854v389h113v-389h-113z" />
<glyph unicode="(" horiz-adv-x="483" d="M68 549q0 106 24 212.5t70 209.5t94.5 188.5t116.5 186.5h76q-59 -108 -99.5 -191t-83 -189.5t-64.5 -211t-22 -205.5t21.5 -205t64 -210.5t83 -189.5t100.5 -194h-76q-69 106 -116.5 190t-94.5 188t-70.5 209.5t-23.5 211.5z" />
<glyph unicode=")" horiz-adv-x="483" d="M35 -250q60 112 100 194.5t82 189t63 210.5t21 205t-21.5 206t-63.5 211t-82 189t-99 191h74q68 -101 117 -186.5t95 -188t69.5 -209t23.5 -213.5t-23.5 -213t-69 -208.5t-94.5 -188t-118 -189.5h-74z" />
<glyph unicode="*" d="M158 967l30 102l248 -98v272h92v-272l258 98l33 -102l-262 -76l174 -211l-90 -68l-152 234l-149 -234l-88 68l168 211z" />
<glyph unicode="+" horiz-adv-x="1054" d="M76 389v123h389v391h123v-391h391v-123h-391v-389h-123v389h-389z" />
<glyph unicode="," horiz-adv-x="483" d="M90 -238l103 388h149l-139 -388h-113z" />
<glyph unicode="-" horiz-adv-x="579" d="M68 418v123h446v-123h-446z" />
<glyph unicode="." horiz-adv-x="483" d="M168 0v150h145v-150h-145z" />
<glyph unicode="/" horiz-adv-x="483" d="M-61 -20l483 1284h123l-484 -1284h-122z" />
<glyph unicode="0" d="M82 594q0 661 407 661q94 0 167 -37.5t117.5 -97.5t73 -143t39.5 -165.5t11 -174.5q0 -66 -3.5 -123t-14 -124.5t-28 -121.5t-49 -107.5t-73 -89.5t-103 -58.5t-137.5 -24.5q-69 2 -127.5 23t-99.5 55t-73 82t-52 100.5t-32.5 113.5t-17.5 117t-5 115zM205 621 q0 -50 2 -92t9 -98t18.5 -100.5t33 -90.5t50.5 -76.5t73 -50t98 -19.5q285 0 285 527q0 81 -5 145t-22 138t-46.5 124t-83.5 84.5t-128 36.5q-55 -2 -99.5 -22.5t-73.5 -51.5t-50.5 -77t-32.5 -90t-18 -100t-8.5 -96.5t-1.5 -90.5z" />
<glyph unicode="1" d="M213 1008l281 235h110v-1243h-123v1104l-200 -176z" />
<glyph unicode="2" d="M82 0v106l285 316q65 72 109.5 127.5t92.5 124t72.5 130.5t24.5 116q0 103 -60 166t-157 63q-159 0 -299 -90l-23 112q180 84 313 84q163 0 262 -83t99 -242q0 -66 -29 -141.5t-83 -154t-106 -141.5t-124 -141l-226 -246h596v-106h-747z" />
<glyph unicode="3" d="M82 37l14 119q143 -62 299 -62q60 0 115 15t102 45t75 82t28 120q0 236 -340 236h-115v106h33q72 0 129.5 5.5t114 22t94 43.5t61 72t23.5 105q0 53 -25.5 93.5t-68 63.5t-91 34.5t-100.5 11.5q-142 0 -278 -68l-11 117q153 57 301 57q64 0 121 -10t108 -33.5t87.5 -58.5 t58 -88t21.5 -119q0 -111 -70 -188t-188 -109v-4q124 -6 191 -88t67 -211q0 -108 -61 -190.5t-162 -125t-226 -42.5q-167 0 -307 49z" />
<glyph unicode="4" d="M35 287v121l559 835h156v-850h184v-106h-184v-287h-123v287h-592zM147 393h480v727z" />
<glyph unicode="5" d="M147 33v125q125 -64 265 -64q85 0 158 29.5t122 95t49 156.5q0 282 -305 282q-150 0 -274 -39l12 625h635v-108h-514l-8 -398q88 27 188 27q180 0 284.5 -93.5t104.5 -273.5q0 -201 -122.5 -305t-329.5 -104q-143 0 -265 45z" />
<glyph unicode="6" d="M92 578q0 116 17.5 214.5t58.5 185.5t104 147t157.5 95t215.5 35q104 0 207 -28l-10 -119q-97 41 -205 41q-94 0 -167 -28.5t-120 -76.5t-77.5 -116t-43 -140.5t-12.5 -156.5q95 153 293 153q62 0 116.5 -12t105 -40.5t86.5 -72t57.5 -110.5t21.5 -152 q0 -186 -110 -297.5t-298 -111.5q-397 0 -397 590zM227 401q0 -128 70.5 -217.5t196.5 -89.5q132 0 206 80.5t74 212.5q0 142 -67.5 216.5t-196.5 74.5q-135 0 -209 -75.5t-74 -201.5z" />
<glyph unicode="7" d="M96 1135v108h760v-108l-481 -1135h-135l495 1135h-639z" />
<glyph unicode="8" d="M76 319q0 130 74 205.5t212 120.5q-247 117 -247 320q0 74 37 132t94.5 91t120 50t122.5 17q161 0 266 -72.5t105 -217.5q0 -55 -22.5 -105.5t-61.5 -90t-80 -69.5t-90 -55q70 -22 119.5 -46.5t91.5 -62t63 -91.5t21 -126q0 -88 -35.5 -154t-96 -103.5t-131 -55.5 t-149.5 -18q-75 0 -146.5 20t-132 59t-97.5 104.5t-37 147.5zM199 319q0 -71 47 -124t111.5 -77t131.5 -24q56 0 105 12.5t91.5 39t67.5 74t25 110.5q0 39 -15.5 73.5t-36 57.5t-56 46.5t-60 36t-65.5 31t-56 25.5q-152 -53 -221 -118.5t-69 -162.5zM238 950 q0 -70 65.5 -139t185.5 -121q50 24 88.5 47t77.5 56t60.5 74t21.5 87q0 63 -38.5 109t-93 66t-116.5 20t-117.5 -20.5t-94.5 -67t-39 -111.5z" />
<glyph unicode="9" d="M82 846q0 185 108 297t297 112q83 0 148 -23t107.5 -66.5t71.5 -96.5t44 -123.5t21 -135.5t6 -144q0 -147 -28 -264.5t-90 -213t-171.5 -148t-261.5 -52.5q-106 0 -209 28l12 117q82 -39 203 -39q96 0 171 29.5t121.5 78t76.5 117t41.5 139.5t11.5 152h-2 q-49 -75 -125.5 -114t-167.5 -39q-53 0 -104.5 12t-103 40.5t-90.5 71.5t-63 111.5t-24 153.5zM205 854q0 -142 66 -216.5t196 -74.5q128 0 205.5 74t77.5 203q0 131 -67.5 218.5t-199.5 90.5q-136 -3 -207 -83.5t-71 -211.5z" />
<glyph unicode=":" horiz-adv-x="483" d="M168 0v150h145v-150h-145zM168 758v149h145v-149h-145z" />
<glyph unicode=";" horiz-adv-x="483" d="M90 -238l103 388h149l-139 -388h-113zM168 758v149h145v-149h-145z" />
<glyph unicode="&#x3c;" horiz-adv-x="1054" d="M76 395v111l903 409v-118l-766 -346l766 -349v-116z" />
<glyph unicode="=" horiz-adv-x="1054" d="M76 211v123h903v-123h-903zM76 567v123h903v-123h-903z" />
<glyph unicode="&#x3e;" horiz-adv-x="1054" d="M78 -14v116l766 349l-766 346v118l901 -409v-111z" />
<glyph unicode="?" horiz-adv-x="878" d="M147 1219q140 45 261 45q149 0 244.5 -81t95.5 -239q0 -57 -17 -107.5t-43.5 -88.5t-59 -74.5l-65 -73t-59 -75t-43.5 -89.5t-17 -108v-27h-112v23q0 58 16 110.5t42 94t57 80.5t62.5 77t57.5 76t42 85t16 97q0 99 -62 156t-162 57q-77 0 -249 -49zM317 0v150h146v-150 h-146z" />
<glyph unicode="@" horiz-adv-x="1411" d="M66 621q0 100 25 193.5t77.5 175.5t127.5 143t180.5 96t230.5 35q98 0 189.5 -21.5t172 -66t140.5 -107t95 -151t35 -191.5q0 -89 -27 -169t-70.5 -137t-96.5 -99.5t-107 -63t-100 -20.5q-120 0 -141 108h-4q-83 -108 -220 -108q-103 0 -171 78.5t-68 189.5 q0 85 29 169.5t80.5 154.5t130.5 113.5t171 43.5q128 0 195 -137l39 108h111l-152 -485q-16 -50 -16 -86q0 -16 10.5 -28.5t28.5 -12.5q75 0 136 56.5t93.5 143t32.5 181.5q0 102 -42 184.5t-113.5 135.5t-164 81.5t-196.5 28.5q-228 0 -376.5 -151.5t-148.5 -382.5 q0 -232 148.5 -384.5t376.5 -152.5q312 0 471 197h108q-184 -303 -579 -303q-123 0 -227.5 35t-180 96t-128.5 142.5t-79 175t-26 192.5zM467 516q9 -170 129 -170q53 0 101 26t81 67t58 91.5t37.5 99.5t13.5 91q-5 160 -142 160q-99 0 -187 -107.5t-91 -257.5z" />
<glyph unicode="A" horiz-adv-x="1175" d="M16 0l510 1243h140l491 -1243h-127l-133 334h-627l-133 -334h-121zM315 440h541l-270 684z" />
<glyph unicode="B" d="M137 0v1243h295q64 0 118.5 -8.5t106.5 -30t88 -55.5t58 -88.5t22 -124.5q0 -237 -227 -283v-4q118 -23 191 -101.5t73 -197.5q0 -350 -479 -350h-246zM258 106h129q162 0 257 60t95 182q0 48 -11.5 86t-29.5 63.5t-48 43.5t-58.5 28t-70.5 15t-74.5 6.5t-79.5 1.5h-109 v-486zM262 700h137q63 0 115 11.5t95.5 37t68 71.5t24.5 110q0 39 -9.5 70.5t-25 52.5t-38.5 36.5t-46 24t-51.5 13.5t-51 6.5t-48.5 1.5h-170v-435z" />
<glyph unicode="C" horiz-adv-x="1175" d="M96 621q0 188 74.5 333.5t217 227.5t333.5 82q72 0 154.5 -11t130.5 -36l-7 -113q-108 53 -278 53q-236 0 -370 -150t-134 -386q0 -156 56.5 -275.5t172 -189.5t275.5 -70q182 0 278 53l7 -106q-48 -26 -131 -39.5t-154 -13.5q-292 0 -458.5 175.5t-166.5 465.5z" />
<glyph unicode="D" horiz-adv-x="1175" d="M137 0v1243h307q159 0 279 -43t194 -123.5t111 -191t37 -250.5q0 -168 -51.5 -291.5t-147.5 -198t-223 -110t-289 -35.5h-217zM258 106h102q290 0 436 129.5t146 405.5q0 136 -38.5 234.5t-109 154t-158.5 80.5t-198 25h-180v-1029z" />
<glyph unicode="E" horiz-adv-x="878" d="M147 0v1243h609v-108h-486v-443h461v-106h-461v-480h506v-106h-629z" />
<glyph unicode="F" horiz-adv-x="778" d="M131 0v1243h590v-108h-467v-443h446v-106h-446v-586h-123z" />
<glyph unicode="G" horiz-adv-x="1271" d="M109 621q0 288 168.5 465.5t457.5 177.5q84 0 179 -15t153 -45l-14 -112q-121 65 -318 65q-159 0 -274.5 -70.5t-172.5 -190.5t-57 -275q0 -241 132.5 -388t371.5 -147q192 0 262 43v436h-288v107h411v-617q-182 -75 -370 -75q-303 0 -472 173t-169 468z" />
<glyph unicode="H" horiz-adv-x="1175" d="M150 0v1243h122v-551h629v551h123v-1243h-123v586h-629v-586h-122z" />
<glyph unicode="I" horiz-adv-x="382" d="M131 0v1243h123v-1243h-123z" />
<glyph unicode="J" horiz-adv-x="579" d="M18 0v109q61 -23 117 -23q180 0 180 231v926h123v-924q0 -153 -73.5 -246t-217.5 -93q-68 0 -129 20z" />
<glyph unicode="K" horiz-adv-x="1075" d="M164 0v1243h123v-557l557 557h162l-603 -586l654 -657h-170l-600 621v-621h-123z" />
<glyph unicode="L" horiz-adv-x="778" d="M137 0v1243h121v-1137h500v-106h-621z" />
<glyph unicode="M" horiz-adv-x="1570" d="M158 0v1243h176l457 -1093l456 1093h176v-1243h-123v1120h-4l-452 -1120h-107l-452 1120h-4v-1120h-123z" />
<glyph unicode="N" horiz-adv-x="1175" d="M131 0v1243h156l631 -1093h4v1093h122v-1243h-165l-621 1071h-4v-1071h-123z" />
<glyph unicode="O" horiz-adv-x="1271" d="M90 621q0 103 20 196.5t63 175.5t106.5 142t155 94.5t202.5 34.5q109 0 199.5 -33t154 -91.5t107 -138.5t64 -172.5t20.5 -195.5q0 -301 -138.5 -475.5t-406.5 -177.5q-262 3 -404.5 176t-142.5 465zM213 621q0 -106 27 -200.5t78 -170t133.5 -120t185.5 -44.5 q104 0 186.5 44.5t133.5 120.5t77.5 170.5t26.5 199.5q0 82 -15.5 158t-49 145.5t-82 120.5t-120 81.5t-157.5 30.5t-157 -30.5t-120 -81.5t-82.5 -120.5t-49 -145.5t-15.5 -158z" />
<glyph unicode="P" horiz-adv-x="878" d="M147 0v1243h306q385 0 385 -352q0 -113 -53.5 -194.5t-142.5 -120.5t-202 -39h-170v-537h-123zM270 645h84q88 0 148.5 9.5t111.5 35t76 75.5t25 126q0 120 -63 182t-183 62h-199v-490z" />
<glyph unicode="Q" horiz-adv-x="1271" d="M90 621q0 103 20 196.5t63 175.5t106.5 142t155 94.5t202.5 34.5q109 0 199.5 -33t154 -91.5t107 -138.5t64 -172.5t20.5 -195.5q0 -462 -322 -613l262 -251h-164l-221 219q-41 -8 -100 -8q-174 0 -299 82t-186.5 225.5t-61.5 333.5zM213 621q0 -106 27 -200.5t78 -170 t133.5 -120t185.5 -44.5t186 45t133.5 121t77.5 170.5t27 198.5q0 82 -15.5 158t-49 145.5t-82 120.5t-120 81.5t-157.5 30.5t-157 -30.5t-120 -81.5t-82.5 -120.5t-49 -145.5t-15.5 -158z" />
<glyph unicode="R" d="M150 0v1243h321q365 0 365 -323q0 -118 -78 -193.5t-199 -93.5v-2q53 -7 81.5 -28t53.5 -64l238 -539h-135l-181 420q-15 35 -30.5 61.5t-28.5 44t-31 29.5t-30.5 18t-36.5 9t-38.5 3.5t-45.5 0.5h-103v-586h-122zM272 692h131q58 0 110 11.5t98.5 36.5t74 71.5 t27.5 108.5q0 45 -9.5 79t-23 56.5t-39.5 38.5t-47 23.5t-58.5 12t-61 5t-66.5 0.5h-136v-443z" />
<glyph unicode="S" horiz-adv-x="878" d="M96 940q0 145 111.5 234.5t281.5 89.5q122 0 246 -41l-20 -113q-89 47 -226 47q-49 0 -94.5 -11.5t-86 -35t-65 -67t-24.5 -101.5q0 -33 15.5 -63.5t36.5 -52.5t56.5 -46.5t62 -39t67.5 -35.5t59 -31q38 -21 58.5 -33t54 -34.5t52 -40t42 -45t36 -54t21 -62t8.5 -75.5 q0 -91 -35.5 -160.5t-95.5 -109.5t-130 -60t-146 -20q-181 0 -281 53l13 125q107 -72 274 -72q125 0 202 65t77 189q0 120 -179 213q-61 32 -97.5 52t-83.5 48.5t-73.5 49.5t-56.5 49.5t-45 56t-25 61t-10 70.5z" />
<glyph unicode="T" horiz-adv-x="878" d="M12 1135v108h856v-108h-366v-1135h-123v1135h-367z" />
<glyph unicode="U" horiz-adv-x="1175" d="M137 434v809h123v-809q0 -159 85.5 -253.5t242.5 -94.5q159 0 243 94t84 254v809h123v-809q0 -107 -29.5 -189.5t-74.5 -131t-107 -80t-119.5 -42.5t-119.5 -11q-47 0 -97.5 8.5t-116.5 37.5t-116 76t-85.5 133t-35.5 199z" />
<glyph unicode="V" horiz-adv-x="1075" d="M4 1243h131l400 -1120l415 1120h121l-473 -1243h-131z" />
<glyph unicode="W" horiz-adv-x="1667" d="M10 1243h127l305 -1104h4l318 1104h147l314 -1104h4l311 1104h119l-361 -1243h-145l-315 1104h-4l-320 -1104h-147z" />
<glyph unicode="X" horiz-adv-x="1075" d="M6 0l463 653l-416 590h144l348 -502l352 502h137l-418 -590l453 -653h-149l-379 565l-394 -565h-141z" />
<glyph unicode="Y" horiz-adv-x="1075" d="M14 1243h144l379 -608l389 608h135l-463 -717v-526h-123v526z" />
<glyph unicode="Z" horiz-adv-x="878" d="M31 0v106l649 1029h-633v108h762v-108l-645 -1029h665v-106h-798z" />
<glyph unicode="[" horiz-adv-x="483" d="M117 -250v1596h289v-86h-177v-1424h177v-86h-289z" />
<glyph unicode="\" horiz-adv-x="483" d="M-61 1264h122l484 -1284h-123z" />
<glyph unicode="]" horiz-adv-x="483" d="M78 -164h176v1424h-176v86h289v-1596h-289v86z" />
<glyph unicode="^" horiz-adv-x="1054" d="M82 471l389 772h115l387 -772h-127l-318 649l-319 -649h-127z" />
<glyph unicode="_" horiz-adv-x="878" d="M-6 -133h891v-90h-891v90z" />
<glyph unicode="`" horiz-adv-x="382" d="M-12 1274h139l166 -256h-82z" />
<glyph unicode="a" horiz-adv-x="878" d="M66 227q0 65 19 116.5t48.5 85t77.5 58t91.5 37t106.5 19.5t107.5 8.5t108.5 1.5h20v47q0 118 -50.5 176t-156.5 58q-141 0 -266 -76v108q145 64 266 64q163 0 241.5 -83t78.5 -255v-402q0 -131 8 -190h-111l-2 145q-39 -77 -119 -121t-169 -44q-70 0 -125 18t-87 45 t-52.5 62t-27.5 64.5t-7 57.5zM188 238q0 -79 54.5 -121.5t134.5 -42.5q268 0 268 311v72h-33q-59 0 -104 -2.5t-97 -10t-89 -22.5t-69 -38.5t-48.5 -60.5t-16.5 -85z" />
<glyph unicode="b" d="M123 0v1335h113v-581h4q3 14 14.5 33.5t35.5 45t55 47t77.5 36t99.5 14.5q191 0 283 -127.5t92 -347.5q0 -135 -40 -240.5t-126 -170t-209 -64.5q-197 0 -282 163h-4v-143h-113zM236 467q0 -50 7.5 -101t27.5 -104.5t49 -94.5t77 -67t107 -26q65 0 114.5 25t78 63t47 91 t24.5 101t6 101q0 77 -12.5 140.5t-41.5 119.5t-84 87.5t-132 31.5q-68 0 -121.5 -34t-84.5 -88.5t-46.5 -117.5t-15.5 -127z" />
<glyph unicode="c" horiz-adv-x="778" d="M68 455q0 211 124 342t324 133q117 0 219 -37l-10 -107q-98 48 -195 48q-161 0 -250.5 -104.5t-89.5 -274.5q0 -160 91.5 -270.5t236.5 -110.5q105 0 205 41l12 -105q-102 -30 -213 -30t-199 37t-143 102t-83.5 150.5t-28.5 185.5z" />
<glyph unicode="d" d="M82 455q0 106 21.5 191t65 149.5t116.5 99.5t170 35q60 0 114.5 -20t88 -49t54.5 -57.5t25 -49.5h4v581h113v-1335h-113v143h-4q-88 -163 -276 -163q-95 0 -168.5 36.5t-119 101.5t-68.5 150t-23 187zM205 455q0 -71 14 -135.5t43.5 -121t83.5 -90.5t127 -34 q67 0 120.5 34t84.5 89t47 118t16 127q0 73 -14 139t-44 124.5t-84 93.5t-126 35q-73 0 -126.5 -31t-83.5 -86t-44 -120t-14 -142z" />
<glyph unicode="e" horiz-adv-x="878" d="M68 442q0 215 102 351.5t279 136.5q179 0 270.5 -125t91.5 -326v-57h-621q0 -150 78.5 -249t220.5 -99q58 0 136.5 21.5t117.5 47.5v-114q-128 -49 -264 -49q-108 0 -188.5 35t-128.5 98.5t-71 145.5t-23 183zM190 518h498q0 65 -13 120t-39.5 100t-72 70.5t-106.5 25.5 q-79 0 -141.5 -47.5t-94 -118.5t-31.5 -150z" />
<glyph unicode="f" horiz-adv-x="579" d="M29 811v96h182v66q0 38 0.5 63t3 60.5t7 59.5t13 53.5t20.5 49t30 39.5t41.5 31.5t55 19t69.5 7.5q69 0 106 -29l-8 -86q-40 19 -88 19q-37 0 -63 -14t-40 -33.5t-22 -51.5t-10 -58.5t-2 -62.5v-133h204v-96h-204v-811h-113v811h-182z" />
<glyph unicode="g" d="M82 455q0 106 21.5 191t65 149.5t116.5 99.5t170 35q101 0 163 -23.5t119 -101.5h4v102h113v-833q0 -99 -22.5 -179.5t-70 -144.5t-130.5 -99.5t-195 -35.5q-138 0 -282 55l10 107q119 -66 266 -66q62 0 110.5 14t81.5 36t56 59t35.5 72t19.5 88t8.5 94.5t1.5 103.5h-4 q-94 -178 -270 -178q-84 0 -151 27.5t-110.5 72t-72.5 104.5t-41 122.5t-12 128.5zM205 455q0 -96 25 -173.5t85.5 -130.5t149.5 -55q72 1 127 32.5t86.5 83.5t47 113.5t15.5 129.5q0 86 -13 151.5t-43 118.5t-83.5 81t-128.5 28q-73 0 -126.5 -31t-83.5 -86t-44 -120 t-14 -142z" />
<glyph unicode="h" d="M135 0v1335h111v-581h4q40 82 116.5 129t170.5 47q72 0 126 -19.5t88.5 -52.5t55.5 -83t29 -105.5t8 -126.5v-543h-113v541q0 149 -45.5 221t-169.5 72q-58 0 -105 -21t-77 -55t-50.5 -80t-29 -94t-8.5 -99v-485h-111z" />
<glyph unicode="i" horiz-adv-x="382" d="M135 0v907h111v-907h-111zM135 1149v149h111v-149h-111z" />
<glyph unicode="j" horiz-adv-x="382" d="M-55 -279q19 -6 67 -10q73 3 98 43.5t25 112.5v1040h111v-1036q0 -121 -46 -188.5t-159 -67.5q-69 0 -96 10v96zM135 1149v149h111v-149h-111z" />
<glyph unicode="k" horiz-adv-x="878" d="M135 0v1335h111v-798l407 370h144l-443 -401l496 -506h-156l-448 467v-467h-111z" />
<glyph unicode="l" horiz-adv-x="382" d="M135 0v1335h111v-1335h-111z" />
<glyph unicode="m" horiz-adv-x="1470" d="M127 907h109v-153h4q6 16 10 26t27 42t50.5 52t79.5 38t115 18q20 0 40.5 -2.5t55 -13.5t61.5 -30t51 -57.5t32 -89.5h4q36 86 111.5 139.5t179.5 53.5q135 0 210.5 -83.5t75.5 -221.5v-625h-112v604q0 46 -7.5 82.5t-26.5 72.5t-59.5 55.5t-99.5 19.5q-102 0 -172.5 -86 t-70.5 -246v-502h-113v604q0 109 -43.5 169.5t-149.5 60.5q-103 0 -173 -87.5t-70 -244.5v-502h-111v694q0 117 -8 213z" />
<glyph unicode="n" d="M127 907h109v-162h4q38 85 104.5 135t187.5 50q161 0 236.5 -93.5t75.5 -256.5v-580h-113v551q0 283 -215 283q-59 0 -106.5 -19.5t-77.5 -51t-50 -75.5t-28 -90t-8 -96v-502h-111v694q0 117 -8 213z" />
<glyph unicode="o" d="M66 455q0 97 26 181.5t76.5 151t133 104.5t187.5 38t187 -37.5t132.5 -103t76.5 -150.5t26 -184t-26 -183t-76.5 -149.5t-132.5 -103.5t-187 -39q-105 1 -187.5 39.5t-133 104.5t-76.5 150t-26 181zM188 455q0 -164 78.5 -271t222.5 -110q144 3 221.5 108t77.5 273 q0 170 -76.5 274.5t-222.5 104.5q-98 0 -167.5 -52t-101.5 -136t-32 -191z" />
<glyph unicode="p" d="M123 -373v1280h106v-166q39 77 118 133t175 56q191 0 283 -127.5t92 -347.5q0 -135 -40 -240.5t-126 -170t-209 -64.5q-205 0 -282 176h-4v-529h-113zM236 455q0 -63 14.5 -126t44 -122t84 -96t125.5 -37q65 0 114.5 25t78 63t47 91t24.5 101t6 101q0 77 -12.5 140.5 t-41.5 119.5t-84 87.5t-132 31.5q-57 0 -104 -24t-76.5 -63t-50 -89.5t-29 -101t-8.5 -101.5z" />
<glyph unicode="q" d="M82 455q0 106 21.5 191t65 149.5t116.5 99.5t170 35q64 0 118 -20t86.5 -50.5t51 -55t26.5 -44.5h4v147h113v-1280h-113v529h-4q-77 -176 -282 -176q-124 0 -209.5 65t-124.5 170t-39 240zM205 455q0 -71 14 -135.5t43.5 -121t83.5 -90.5t127 -34q67 0 120.5 34t84.5 89 t47 118t16 127q0 73 -14 139t-44 124.5t-84 93.5t-126 35q-73 0 -126.5 -31t-83.5 -86t-44 -120t-14 -142z" />
<glyph unicode="r" horiz-adv-x="579" d="M127 907h113v-174h4q34 84 91.5 140.5t139.5 56.5q34 0 80 -12v-117q-45 10 -82 10q-52 0 -92.5 -23t-65.5 -59t-41 -85t-22 -96.5t-6 -98.5v-449h-111v705q0 134 -8 202z" />
<glyph unicode="s" horiz-adv-x="679" d="M55 20l11 111q111 -57 235 -57q82 0 142.5 46t60.5 118q0 46 -24 81.5t-62.5 59t-85 44t-93 43t-85 49.5t-62.5 69.5t-24 97.5q0 125 83 186.5t211 61.5q44 0 108 -11t116 -30l-11 -98q-114 43 -200 43q-197 0 -197 -152q0 -33 24.5 -60.5t64 -47.5t87.5 -40t95.5 -46 t87 -57.5t64 -81t24.5 -111.5q0 -69 -29 -121t-77.5 -81t-101 -42.5t-108.5 -13.5q-133 0 -254 40z" />
<glyph unicode="t" horiz-adv-x="579" d="M29 811v96h178v219l112 39v-258h207v-96h-207v-588q0 -65 30 -107t91 -42q59 0 105 22l6 -92q-58 -24 -137 -24q-42 0 -75 9.5t-55 23.5t-37 39t-22.5 46.5t-12 57.5t-5 60t-0.5 65v530h-178z" />
<glyph unicode="u" d="M135 328v579h111v-551q0 -134 55 -208t162 -74q76 0 131 31.5t83.5 83.5t41 105.5t12.5 111.5v501h113v-745q0 -80 6 -162h-109v162h-4q-74 -182 -293 -182q-160 0 -234.5 92t-74.5 256z" />
<glyph unicode="v" horiz-adv-x="778" d="M10 907h123l250 -784h4l264 784h117l-319 -907h-132z" />
<glyph unicode="w" horiz-adv-x="1372" d="M6 907h123l238 -784h4l254 784h135l239 -784h5l249 784h113l-299 -907h-135l-248 784h-4l-246 -784h-135z" />
<glyph unicode="x" horiz-adv-x="778" d="M8 0l320 481l-289 426h139l215 -338l219 338h127l-280 -426l311 -481h-139l-238 391l-256 -391h-129z" />
<glyph unicode="y" horiz-adv-x="778" d="M10 907h123l254 -755l264 755h117l-362 -1042q-40 -115 -96 -182.5t-138 -67.5q-66 0 -121 14l10 97q61 -15 84 -15q64 0 100 50t64 149l23 80z" />
<glyph unicode="z" horiz-adv-x="778" d="M51 0v94l547 717h-526v96h655v-96l-547 -715h547v-96h-676z" />
<glyph unicode="{" horiz-adv-x="483" d="M61 506v86q68 0 104 66t36 173v299q0 98 51 157t129 59h98v-86h-88q-78 -5 -78 -166v-293q0 -58 -17 -107t-41.5 -78t-48.5 -45.5t-42 -19.5v-4q19 -4 41.5 -18t48 -42t42.5 -79t17 -115v-289q0 -163 78 -168h88v-86h-98q-79 0 -129.5 59.5t-50.5 157.5v303 q0 106 -35 169.5t-105 66.5z" />
<glyph unicode="|" horiz-adv-x="382" d="M131 -444v1779h123v-1779h-123z" />
<glyph unicode="}" horiz-adv-x="483" d="M2 -164h90q41 3 59.5 50t18.5 116v293q0 57 17 105.5t42 77.5t48 46.5t42 22.5v4q-13 2 -35 16.5t-49 42t-46 79.5t-19 116v289q0 69 -18.5 116t-59.5 50h-90v86h100q80 0 130.5 -58t50.5 -160v-303q0 -104 34.5 -168.5t104.5 -64.5v-86q-72 -3 -105.5 -69.5 t-33.5 -172.5v-299q0 -100 -51.5 -157.5t-131.5 -57.5h-98v86z" />
<glyph unicode="~" horiz-adv-x="1054" d="M117 414q82 164 223 164q48 0 122 -33t145 -66t112 -33q86 5 155 132l64 -93q-32 -66 -90 -113.5t-131 -47.5q-46 0 -98 20.5t-91.5 45t-92.5 45t-101 20.5q-24 0 -45 -9.5t-41.5 -32t-32.5 -39t-35 -50.5z" />
<glyph horiz-adv-x="1024" />
<glyph unicode="&#xa1;" horiz-adv-x="679" d="M268 758v149h144v-149h-144zM289 -334v940h123v-940h-123z" />
<glyph unicode="&#xa2;" d="M170 455q0 213 124 342.5t324 132.5q26 0 62 -4l39 121h84l-45 -132q55 -11 80 -22l-9 -107l-49 21q-20 7 -53 14l-238 -717q61 -30 134 -30q101 0 204 41l11 -105q-102 -30 -213 -30q-99 0 -170 24l-56 -166h-84l66 197q-102 57 -156.5 170t-54.5 250zM293 455 q0 -196 127 -308l227 684q-9 3 -12 3q-161 -3 -251.5 -106.5t-90.5 -272.5z" />
<glyph unicode="&#xa3;" d="M113 0v106h184v512h-162v95h162v88q0 226 95.5 340t293.5 114q141 0 199 -38l-17 -109q-68 41 -182 41q-70 0 -120.5 -23t-78 -57t-43.5 -85.5t-20 -94.5t-4 -98v-78h295v-95h-295v-512h436v-106h-743z" />
<glyph unicode="&#xa4;" d="M41 252l102 96q-96 122 -96 273q0 157 96 270l-102 96l78 80l100 -98q127 94 270 94q150 0 271 -94l96 98l80 -80l-96 -96q90 -122 90 -270q0 -151 -90 -273l96 -96l-80 -78l-96 100q-113 -94 -271 -94q-157 0 -270 94l-100 -100zM170 621q0 -143 88.5 -238.5 t222.5 -95.5q143 0 233 94.5t93 239.5q-3 142 -90.5 237t-227.5 98q-138 -9 -228.5 -104.5t-90.5 -230.5z" />
<glyph unicode="&#xa5;" d="M29 1243h135l325 -600l334 600h127l-346 -616h203v-86h-250l-6 -11v-133h256v-86h-256v-311h-123v311h-256v86h256v133l-6 11h-250v86h203z" />
<glyph unicode="&#xa6;" horiz-adv-x="382" d="M131 -311v622h123v-622h-123zM131 578v624h123v-624h-123z" />
<glyph unicode="&#xa7;" d="M152 551q0 113 141 229l16 15l-12 8q-133 79 -133 194q0 69 29.5 122.5t78 84t102.5 45.5t111 15q151 0 258 -39l-12 -105q-32 19 -92 33t-121 14q-34 0 -71 -8t-74.5 -24t-61.5 -47t-24 -72q0 -82 84 -129q39 -25 95 -51t101 -43.5t93 -43.5t81 -53.5t55 -71.5t23 -100 q-3 -76 -35 -127t-98 -114q62 -29 100.5 -84t38.5 -125q0 -54 -18.5 -99.5t-49.5 -76t-68.5 -53t-79.5 -35t-78 -18t-68 -5.5q-156 0 -299 49l12 105q137 -58 287 -58q94 0 166.5 48t72.5 139q0 44 -30.5 78.5t-79 58t-107 45.5t-117 48t-107 57.5t-79 81t-30.5 112.5z M274 559q0 -46 32 -83t85 -60l207 -90l39 36q65 59 68 142q-3 75 -62.5 121.5t-247.5 128.5l-12 -9q-35 -21 -72 -73t-37 -113z" />
<glyph unicode="&#xa8;" horiz-adv-x="382" d="M-27 1075v150h133v-150h-133zM276 1075v150h134v-150h-134z" />
<glyph unicode="&#xa9;" horiz-adv-x="1411" d="M63 621q0 132 50.5 251t136.5 205t205.5 136.5t251.5 50.5q133 0 252.5 -50t204.5 -136t134.5 -205t49.5 -252q0 -175 -85.5 -322.5t-233 -233t-322.5 -85.5q-130 0 -249.5 51t-206 136.5t-137.5 204.5t-51 249zM186 621q0 -152 67 -277t186.5 -197.5t267.5 -72.5 q147 0 266 72t185.5 197t66.5 278q0 238 -146 392t-372 154t-373.5 -155t-147.5 -391zM344 621q0 176 102 289.5t277 113.5q128 0 213.5 -67.5t107.5 -202.5h-106q-15 80 -71 127t-142 47q-122 0 -190 -85t-68 -220q0 -127 73.5 -216.5t188.5 -89.5q83 0 138.5 49t70.5 132 h109q-68 -277 -318 -277q-170 0 -277.5 114t-107.5 286z" />
<glyph unicode="&#xaa;" horiz-adv-x="565" d="M37 848q0 45 14.5 79t42.5 55.5t60 36t77 21t83.5 9t88.5 2.5h15v26q0 58 -26 84.5t-101 26.5q-87 0 -166 -39l-19 74q98 41 195 41q207 0 207 -203v-240q0 -44 10 -116h-90l-6 86q-22 -48 -72.5 -74.5t-107.5 -26.5q-92 0 -148.5 43.5t-56.5 114.5zM127 862 q0 -100 133 -100q71 0 114.5 46.5t43.5 84.5v82h-23q-268 0 -268 -113z" />
<glyph unicode="&#xab;" d="M156 479l250 365h104l-238 -365l238 -364h-104zM467 479l250 365h104l-235 -365l235 -364h-104z" />
<glyph unicode="&#xac;" horiz-adv-x="1054" d="M76 567v123h903v-487h-123v364h-780z" />
<glyph unicode="&#xad;" horiz-adv-x="579" d="M68 418v123h446v-123h-446z" />
<glyph unicode="&#xae;" horiz-adv-x="1411" d="M63 621q0 132 50.5 251t136.5 205t205.5 136.5t251.5 50.5q133 0 252.5 -50t204.5 -136t134.5 -205t49.5 -252q0 -175 -85.5 -322.5t-233 -233t-322.5 -85.5q-130 0 -249.5 51t-206 136.5t-137.5 204.5t-51 249zM186 621q0 -152 67 -277t186.5 -197.5t267.5 -72.5 q147 0 266 72t185.5 197t66.5 278q0 238 -146 392t-372 154t-373.5 -155t-147.5 -391zM461 246v753h287q258 0 258 -213q0 -93 -54 -150.5t-139 -57.5l213 -332h-129l-211 332h-102v-332h-123zM584 674h159q142 0 142 119q0 110 -156 110h-145v-229z" />
<glyph unicode="&#xaf;" horiz-adv-x="382" d="M-27 1094v94h435v-94h-435z" />
<glyph unicode="&#xb0;" horiz-adv-x="700" d="M68 989q0 110 82.5 188t199.5 78t200 -78t83 -188t-83 -187t-200 -77t-199.5 77t-82.5 187zM160 989q0 -75 56 -127.5t134 -52.5t134.5 52.5t56.5 127.5t-56.5 127.5t-134.5 52.5t-134 -52.5t-56 -127.5z" />
<glyph unicode="&#xb1;" horiz-adv-x="1054" d="M76 0v123h903v-123h-903zM76 479v123h389v301h123v-301h391v-123h-391v-301h-123v301h-389z" />
<glyph unicode="&#xb2;" horiz-adv-x="630" d="M74 506v72l188 170q187 172 187 294q0 61 -39.5 94t-98.5 33q-102 0 -194 -53l-15 88q112 51 209 51q107 0 172 -48.5t68 -157.5q-3 -96 -62 -179.5t-149 -162.5l-133 -115h350v-86h-483z" />
<glyph unicode="&#xb3;" horiz-adv-x="630" d="M55 522l8 94q99 -38 213 -38q79 0 133 39t54 108q0 25 -10 45.5t-24 33t-37.5 21.5t-42 13.5t-47.5 6.5t-43.5 2.5t-39.5 0.5h-49v84h49q36 0 71 4.5t77 16.5t68 40t26 68q0 33 -16.5 56t-44 33.5t-52.5 14.5t-53 4q-116 0 -197 -41l-6 93q69 34 211 34q69 0 125 -17.5 t94.5 -61.5t38.5 -109q0 -64 -46 -111.5t-122 -62.5v-2q85 -6 128.5 -56.5t43.5 -129.5q0 -57 -28.5 -99.5t-76 -66t-101 -34.5t-111.5 -11q-104 0 -193 28z" />
<glyph unicode="&#xb4;" horiz-adv-x="382" d="M88 1018l166 256h141l-225 -256h-82z" />
<glyph unicode="&#xb5;" d="M135 -373v1280h111v-551q0 -134 55 -208t162 -74q76 0 131 31.5t83.5 83.5t41 105.5t12.5 111.5v501h113v-694q0 -102 12 -213h-106l-9 162h-4q-74 -182 -293 -182q-106 0 -198 51v-404h-111z" />
<glyph unicode="&#xb6;" horiz-adv-x="1054" d="M80 901q0 170 102.5 256t302.5 86h426v-1436h-110v1340h-240v-1340h-112v762q-159 3 -264 96t-105 236z" />
<glyph unicode="&#xb7;" horiz-adv-x="483" d="M158 553q0 40 26 63t60 23q33 0 57 -23t27 -63q-3 -37 -27.5 -60.5t-56.5 -23.5t-59 23.5t-27 60.5z" />
<glyph unicode="&#xb8;" horiz-adv-x="382" d="M6 -291l12 68q85 -53 160 -53q92 0 92 65q0 66 -80 66q-28 0 -63 -7l51 152h49l-34 -96q27 6 59 6q58 0 93.5 -30t35.5 -87q0 -36 -19 -62.5t-50 -40.5t-62.5 -20t-63.5 -6q-79 0 -180 45z" />
<glyph unicode="&#xb9;" horiz-adv-x="630" d="M131 1112l182 143h95v-749h-103v651l-135 -104z" />
<glyph unicode="&#xba;" horiz-adv-x="630" d="M35 975q0 127 70.5 208t209.5 81t210 -81t71 -208q0 -128 -71 -209.5t-210 -81.5t-209.5 81.5t-70.5 209.5zM125 975q0 -91 52.5 -153t137.5 -62t138 62t53 153q0 90 -53 151.5t-138 61.5q-84 0 -137 -61.5t-53 -151.5z" />
<glyph unicode="&#xbb;" d="M156 115l237 364l-237 365h104l250 -365l-250 -364h-104zM467 115l238 364l-238 365h104l250 -365l-250 -364h-104z" />
<glyph unicode="&#xbc;" horiz-adv-x="1472" d="M121 1112l182 143h92v-749h-100v651l-135 -104zM225 -39l789 1321h100l-786 -1321h-103zM762 162v88l368 500h121v-502h101v-86h-101v-162h-100v162h-389zM862 248h289v379h-4z" />
<glyph unicode="&#xbd;" horiz-adv-x="1472" d="M98 1112l185 143h92v-749h-103v651l-135 -104zM203 -39l788 1321h101l-789 -1321h-100zM889 0v74l188 168q84 74 135.5 151t51.5 144q0 61 -39.5 94t-98.5 33q-101 0 -194 -54l-14 90q117 50 208 50q107 0 172 -49t68 -158q-3 -96 -62 -179.5t-149 -162.5l-133 -115h350 v-86h-483z" />
<glyph unicode="&#xbe;" horiz-adv-x="1472" d="M88 522l8 94q101 -38 215 -38q76 0 131.5 39.5t55.5 107.5q0 123 -226 123h-67v84h49q37 0 71.5 4.5t76 16.5t67 40t25.5 68q0 33 -16.5 56t-44 33.5t-52.5 14.5t-53 4q-114 0 -195 -41l-8 93q72 34 213 34q67 0 123 -17t95.5 -61t39.5 -110q0 -63 -47.5 -111t-122.5 -63 v-2q85 -6 128.5 -55.5t43.5 -130.5q0 -47 -19.5 -84t-50.5 -60.5t-73.5 -39t-84.5 -21.5t-87 -6q-103 0 -195 28zM362 -39l789 1321h102l-788 -1321h-103zM795 162v88l370 500h121v-502h100v-86h-100v-162h-102v162h-389zM897 248h287v379z" />
<glyph unicode="&#xbf;" horiz-adv-x="878" d="M129 -37q0 68 22 126.5t55 99t72.5 85.5t73 84.5t57 97.5t25.5 124v26h111v-22q0 -63 -16 -117.5t-42 -95.5t-57.5 -78.5t-62.5 -73.5t-57 -72.5t-42 -83.5t-16 -100q0 -97 64 -155t159 -58q122 0 250 51l6 -112q-140 -45 -260 -45q-149 0 -245.5 81.5t-96.5 237.5z M416 758v149h143v-149h-143z" />
<glyph unicode="&#xc0;" horiz-adv-x="1175" d="M16 0l510 1243h140l491 -1243h-127l-133 334h-627l-133 -334h-121zM315 440h541l-270 684zM395 1548h140l165 -256h-82z" />
<glyph unicode="&#xc1;" horiz-adv-x="1175" d="M16 0l510 1243h140l491 -1243h-127l-133 334h-627l-133 -334h-121zM315 440h541l-270 684zM500 1292l166 256h141l-225 -256h-82z" />
<glyph unicode="&#xc2;" horiz-adv-x="1175" d="M16 0l510 1243h140l491 -1243h-127l-133 334h-627l-133 -334h-121zM315 440h541l-270 684zM361 1292l166 256h145l166 -256h-82l-158 182l-155 -182h-82z" />
<glyph unicode="&#xc3;" horiz-adv-x="1175" d="M16 0l510 1243h140l491 -1243h-127l-133 334h-627l-133 -334h-121zM315 440h541l-270 684zM354 1333q12 66 48 111.5t96 48.5q42 -2 108.5 -22.5t77.5 -20.5q68 0 88 59h66q-9 -56 -35.5 -93t-53 -49.5t-53.5 -12.5q-48 0 -114 21.5t-86 21.5q-32 0 -49.5 -15.5 t-28.5 -48.5h-64z" />
<glyph unicode="&#xc4;" horiz-adv-x="1175" d="M16 0l510 1243h140l491 -1243h-127l-133 334h-627l-133 -334h-121zM315 440h541l-270 684zM381 1349v150h133v-150h-133zM684 1349v150h134v-150h-134z" />
<glyph unicode="&#xc5;" horiz-adv-x="1175" d="M16 0l510 1243h140l491 -1243h-127l-133 334h-627l-133 -334h-121zM315 440h541l-270 684zM437 1452q0 70 49.5 120t120.5 50t120.5 -50t49.5 -120t-49.5 -120t-120.5 -50t-120.5 50t-49.5 120zM500 1452q0 -44 31.5 -75t75.5 -31q43 0 74.5 31t31.5 75q0 43 -31.5 75 t-74.5 32q-44 0 -75.5 -32t-31.5 -75z" />
<glyph unicode="&#xc6;" horiz-adv-x="1570" d="M-6 0l776 1243h678v-108h-483v-443h458v-106h-458v-480h503v-106h-624v334h-508l-207 -334h-135zM401 440h443v707h-4z" />
<glyph unicode="&#xc7;" horiz-adv-x="1175" d="M96 621q0 188 74.5 333.5t217 227.5t333.5 82q72 0 154.5 -11t130.5 -36l-7 -113q-108 53 -278 53q-236 0 -370 -150t-134 -386q0 -156 56.5 -275.5t172 -189.5t275.5 -70q182 0 278 53l7 -106q-48 -26 -131 -39.5t-154 -13.5h-27l-26 -76q27 6 59 6q58 0 93.5 -30 t35.5 -87q0 -36 -19 -62.5t-49.5 -40.5t-62 -20t-63.5 -6q-80 0 -181 45l13 68q85 -53 159 -53q92 0 92 65q0 66 -79 66q-29 0 -64 -7l45 136q-259 25 -405 196.5t-146 440.5z" />
<glyph unicode="&#xc8;" horiz-adv-x="878" d="M147 0v1243h609v-108h-486v-443h461v-106h-461v-480h506v-106h-629zM238 1548h139l166 -256h-82z" />
<glyph unicode="&#xc9;" horiz-adv-x="878" d="M147 0v1243h609v-108h-486v-443h461v-106h-461v-480h506v-106h-629zM340 1292l166 256h141l-225 -256h-82z" />
<glyph unicode="&#xca;" horiz-adv-x="878" d="M147 0v1243h609v-108h-486v-443h461v-106h-461v-480h506v-106h-629zM201 1292l166 256h145l166 -256h-82l-158 183l-155 -183h-82z" />
<glyph unicode="&#xcb;" horiz-adv-x="878" d="M147 0v1243h609v-108h-486v-443h461v-106h-461v-480h506v-106h-629zM225 1350v149h133v-149h-133zM528 1350v149h134v-149h-134z" />
<glyph unicode="&#xcc;" horiz-adv-x="382" d="M39 1548h139l166 -256h-82zM131 0v1243h123v-1243h-123z" />
<glyph unicode="&#xcd;" horiz-adv-x="382" d="M39 1292l166 256h141l-225 -256h-82zM131 0v1243h123v-1243h-123z" />
<glyph unicode="&#xce;" horiz-adv-x="382" d="M-47 1292l166 256h145l166 -256h-82l-158 182l-155 -182h-82zM131 0v1243h123v-1243h-123z" />
<glyph unicode="&#xcf;" horiz-adv-x="382" d="M-27 1350v149h133v-149h-133zM131 0v1243h123v-1243h-123zM276 1350v149h134v-149h-134z" />
<glyph unicode="&#xd0;" horiz-adv-x="1175" d="M14 586v106h123v551h209q128 0 235 -21t197.5 -68t153.5 -119t98 -177.5t35 -239.5q0 -162 -52.5 -282.5t-149 -193t-223.5 -107.5t-286 -35h-217v586h-123zM258 106h127q262 0 409.5 135t147.5 400q0 115 -28.5 201.5t-78.5 141.5t-127 89.5t-165.5 48t-202.5 13.5h-82 v-443h381v-106h-381v-480z" />
<glyph unicode="&#xd1;" horiz-adv-x="1175" d="M131 0v1243h156l631 -1093h4v1093h122v-1243h-165l-621 1071h-4v-1071h-123zM350 1333q12 66 47.5 111.5t95.5 48.5q42 -2 108.5 -22.5t77.5 -20.5q69 0 89 59h65q-14 -82 -55.5 -119t-85.5 -37q-48 0 -114.5 21.5t-86.5 21.5q-32 0 -49.5 -15t-28.5 -48h-63z" />
<glyph unicode="&#xd2;" horiz-adv-x="1271" d="M90 621q0 103 20 196.5t63 175.5t106.5 142t155 94.5t202.5 34.5q109 0 199.5 -33t154 -91.5t107 -138.5t64 -172.5t20.5 -195.5q0 -301 -138.5 -475.5t-406.5 -177.5q-262 3 -404.5 176t-142.5 465zM213 621q0 -106 27 -200.5t78 -170t133.5 -120t185.5 -44.5 q104 0 186.5 44.5t133.5 120.5t77.5 170.5t26.5 199.5q0 82 -15.5 158t-49 145.5t-82 120.5t-120 81.5t-157.5 30.5t-157 -30.5t-120 -81.5t-82.5 -120.5t-49 -145.5t-15.5 -158zM443 1548h139l166 -256h-82z" />
<glyph unicode="&#xd3;" horiz-adv-x="1271" d="M90 621q0 103 20 196.5t63 175.5t106.5 142t155 94.5t202.5 34.5q109 0 199.5 -33t154 -91.5t107 -138.5t64 -172.5t20.5 -195.5q0 -301 -138.5 -475.5t-406.5 -177.5q-262 3 -404.5 176t-142.5 465zM213 621q0 -106 27 -200.5t78 -170t133.5 -120t185.5 -44.5 q104 0 186.5 44.5t133.5 120.5t77.5 170.5t26.5 199.5q0 82 -15.5 158t-49 145.5t-82 120.5t-120 81.5t-157.5 30.5t-157 -30.5t-120 -81.5t-82.5 -120.5t-49 -145.5t-15.5 -158zM545 1292l166 256h141l-225 -256h-82z" />
<glyph unicode="&#xd4;" horiz-adv-x="1271" d="M90 621q0 103 20 196.5t63 175.5t106.5 142t155 94.5t202.5 34.5q109 0 199.5 -33t154 -91.5t107 -138.5t64 -172.5t20.5 -195.5q0 -301 -138.5 -475.5t-406.5 -177.5q-262 3 -404.5 176t-142.5 465zM213 621q0 -106 27 -200.5t78 -170t133.5 -120t185.5 -44.5 q104 0 186.5 44.5t133.5 120.5t77.5 170.5t26.5 199.5q0 82 -15.5 158t-49 145.5t-82 120.5t-120 81.5t-157.5 30.5t-157 -30.5t-120 -81.5t-82.5 -120.5t-49 -145.5t-15.5 -158zM406 1292l165 256h146l166 -256h-82l-158 183l-156 -183h-81z" />
<glyph unicode="&#xd5;" horiz-adv-x="1271" d="M90 621q0 103 20 196.5t63 175.5t106.5 142t155 94.5t202.5 34.5q109 0 199.5 -33t154 -91.5t107 -138.5t64 -172.5t20.5 -195.5q0 -301 -138.5 -475.5t-406.5 -177.5q-262 3 -404.5 176t-142.5 465zM213 621q0 -106 27 -200.5t78 -170t133.5 -120t185.5 -44.5 q104 0 186.5 44.5t133.5 120.5t77.5 170.5t26.5 199.5q0 82 -15.5 158t-49 145.5t-82 120.5t-120 81.5t-157.5 30.5t-157 -30.5t-120 -81.5t-82.5 -120.5t-49 -145.5t-15.5 -158zM399 1333q12 66 48 111.5t96 48.5q42 -2 108.5 -22.5t77.5 -20.5q68 0 88 59h66 q-9 -56 -35.5 -93t-53 -49.5t-53.5 -12.5q-48 0 -114 21.5t-86 21.5q-32 0 -49.5 -15.5t-28.5 -48.5h-64z" />
<glyph unicode="&#xd6;" horiz-adv-x="1271" d="M90 621q0 103 20 196.5t63 175.5t106.5 142t155 94.5t202.5 34.5q109 0 199.5 -33t154 -91.5t107 -138.5t64 -172.5t20.5 -195.5q0 -301 -138.5 -475.5t-406.5 -177.5q-262 3 -404.5 176t-142.5 465zM213 621q0 -106 27 -200.5t78 -170t133.5 -120t185.5 -44.5 q104 0 186.5 44.5t133.5 120.5t77.5 170.5t26.5 199.5q0 82 -15.5 158t-49 145.5t-82 120.5t-120 81.5t-157.5 30.5t-157 -30.5t-120 -81.5t-82.5 -120.5t-49 -145.5t-15.5 -158zM428 1350v149h133v-149h-133zM731 1350v149h133v-149h-133z" />
<glyph unicode="&#xd7;" horiz-adv-x="1054" d="M121 135l321 322l-321 321l86 86l323 -321l318 321l90 -86l-322 -321l322 -322l-90 -88l-318 324l-323 -324z" />
<glyph unicode="&#xd8;" horiz-adv-x="1271" d="M45 20l158 179q-113 176 -113 422q0 103 20 196.5t63 175.5t106.5 141.5t155 94t202.5 35.5q231 0 369 -144l151 174l70 -59l-162 -186q117 -176 117 -416q0 -196 -58.5 -340.5t-183 -228.5t-303.5 -84q-244 0 -379 147l-143 -166zM213 621q0 -177 76 -320l635 725 q-106 131 -287 131q-86 -1 -157 -31.5t-120 -81.5t-82.5 -120t-49 -145t-15.5 -158zM342 221q104 -135 295 -135q104 0 186.5 44.5t133.5 120.5t77.5 170.5t26.5 199.5q0 180 -82 329z" />
<glyph unicode="&#xd9;" horiz-adv-x="1175" d="M137 434v809h123v-809q0 -159 85.5 -253.5t242.5 -94.5q159 0 243 94t84 254v809h123v-809q0 -107 -29.5 -189.5t-74.5 -131t-107 -80t-119.5 -42.5t-119.5 -11q-47 0 -97.5 8.5t-116.5 37.5t-116 76t-85.5 133t-35.5 199zM394 1548h139l166 -256h-82z" />
<glyph unicode="&#xda;" horiz-adv-x="1175" d="M137 434v809h123v-809q0 -159 85.5 -253.5t242.5 -94.5q159 0 243 94t84 254v809h123v-809q0 -107 -29.5 -189.5t-74.5 -131t-107 -80t-119.5 -42.5t-119.5 -11q-47 0 -97.5 8.5t-116.5 37.5t-116 76t-85.5 133t-35.5 199zM496 1292l166 256h141l-225 -256h-82z" />
<glyph unicode="&#xdb;" horiz-adv-x="1175" d="M137 434v809h123v-809q0 -159 85.5 -253.5t242.5 -94.5q159 0 243 94t84 254v809h123v-809q0 -107 -29.5 -189.5t-74.5 -131t-107 -80t-119.5 -42.5t-119.5 -11q-47 0 -97.5 8.5t-116.5 37.5t-116 76t-85.5 133t-35.5 199zM356 1292l166 256h146l166 -256h-82l-158 183 l-156 -183h-82z" />
<glyph unicode="&#xdc;" horiz-adv-x="1175" d="M137 434v809h123v-809q0 -159 85.5 -253.5t242.5 -94.5q159 0 243 94t84 254v809h123v-809q0 -107 -29.5 -189.5t-74.5 -131t-107 -80t-119.5 -42.5t-119.5 -11q-47 0 -97.5 8.5t-116.5 37.5t-116 76t-85.5 133t-35.5 199zM377 1350v149h133v-149h-133zM680 1350v149h133 v-149h-133z" />
<glyph unicode="&#xdd;" horiz-adv-x="1075" d="M14 1243h144l379 -608l389 608h135l-463 -717v-526h-123v526zM448 1292l166 256h141l-225 -256h-82z" />
<glyph unicode="&#xde;" horiz-adv-x="878" d="M147 0v1243h123v-231h183q190 0 287.5 -88.5t97.5 -264.5q0 -113 -53.5 -194.5t-142.5 -120.5t-202 -39h-170v-305h-123zM270 414h84q70 0 121 5.5t98.5 21t77 42t47 71t17.5 105.5q0 120 -63 182t-183 62h-199v-489z" />
<glyph unicode="&#xdf;" d="M135 0v965q0 182 88.5 286.5t265.5 104.5q165 0 251.5 -85.5t86.5 -250.5q0 -245 -239 -305v-2q307 -38 307 -330q0 -176 -104.5 -285.5t-282.5 -109.5q-85 0 -152 20l9 107q60 -31 131 -31q132 0 204 79t72 218q0 79 -24 133t-71 84t-106 42.5t-139 12.5h-18v97h32 q114 0 186.5 74t72.5 198q0 105 -58.5 171.5t-157.5 66.5q-243 0 -243 -334v-926h-111z" />
<glyph unicode="&#xe0;" horiz-adv-x="878" d="M66 227q0 65 19 116.5t48.5 85t77.5 58t91.5 37t106.5 19.5t107.5 8.5t108.5 1.5h20v47q0 118 -50.5 176t-156.5 58q-141 0 -266 -76v108q145 64 266 64q163 0 241.5 -83t78.5 -255v-402q0 -131 8 -190h-111l-2 145q-39 -77 -119 -121t-169 -44q-70 0 -125 18t-87 45 t-52.5 62t-27.5 64.5t-7 57.5zM188 238q0 -79 54.5 -121.5t134.5 -42.5q268 0 268 311v72h-33q-59 0 -104 -2.5t-97 -10t-89 -22.5t-69 -38.5t-48.5 -60.5t-16.5 -85zM240 1264h139l166 -256h-82z" />
<glyph unicode="&#xe1;" horiz-adv-x="878" d="M66 227q0 65 19 116.5t48.5 85t77.5 58t91.5 37t106.5 19.5t107.5 8.5t108.5 1.5h20v47q0 118 -50.5 176t-156.5 58q-141 0 -266 -76v108q145 64 266 64q163 0 241.5 -83t78.5 -255v-402q0 -131 8 -190h-111l-2 145q-39 -77 -119 -121t-169 -44q-70 0 -125 18t-87 45 t-52.5 62t-27.5 64.5t-7 57.5zM188 238q0 -79 54.5 -121.5t134.5 -42.5q268 0 268 311v72h-33q-59 0 -104 -2.5t-97 -10t-89 -22.5t-69 -38.5t-48.5 -60.5t-16.5 -85zM340 1008l166 256h141l-225 -256h-82z" />
<glyph unicode="&#xe2;" horiz-adv-x="878" d="M66 227q0 65 19 116.5t48.5 85t77.5 58t91.5 37t106.5 19.5t107.5 8.5t108.5 1.5h20v47q0 118 -50.5 176t-156.5 58q-141 0 -266 -76v108q145 64 266 64q163 0 241.5 -83t78.5 -255v-402q0 -131 8 -190h-111l-2 145q-39 -77 -119 -121t-169 -44q-70 0 -125 18t-87 45 t-52.5 62t-27.5 64.5t-7 57.5zM188 238q0 -79 54.5 -121.5t134.5 -42.5q268 0 268 311v72h-33q-59 0 -104 -2.5t-97 -10t-89 -22.5t-69 -38.5t-48.5 -60.5t-16.5 -85zM203 1008l166 256h145l166 -256h-82l-158 182l-155 -182h-82z" />
<glyph unicode="&#xe3;" horiz-adv-x="878" d="M66 227q0 65 19 116.5t48.5 85t77.5 58t91.5 37t106.5 19.5t107.5 8.5t108.5 1.5h20v47q0 118 -50.5 176t-156.5 58q-141 0 -266 -76v108q145 64 266 64q163 0 241.5 -83t78.5 -255v-402q0 -131 8 -190h-111l-2 145q-39 -77 -119 -121t-169 -44q-70 0 -125 18t-87 45 t-52.5 62t-27.5 64.5t-7 57.5zM188 238q0 -79 54.5 -121.5t134.5 -42.5q268 0 268 311v72h-33q-59 0 -104 -2.5t-97 -10t-89 -22.5t-69 -38.5t-48.5 -60.5t-16.5 -85zM195 1049q12 66 47.5 111t95.5 48q42 -2 108.5 -22.5t77.5 -20.5q68 0 88 60h66q-14 -82 -55.5 -119 t-85.5 -37q-48 0 -114.5 21.5t-86.5 21.5q-32 0 -49.5 -15t-28.5 -48h-63z" />
<glyph unicode="&#xe4;" horiz-adv-x="878" d="M66 227q0 65 19 116.5t48.5 85t77.5 58t91.5 37t106.5 19.5t107.5 8.5t108.5 1.5h20v47q0 118 -50.5 176t-156.5 58q-141 0 -266 -76v108q145 64 266 64q163 0 241.5 -83t78.5 -255v-402q0 -131 8 -190h-111l-2 145q-39 -77 -119 -121t-169 -44q-70 0 -125 18t-87 45 t-52.5 62t-27.5 64.5t-7 57.5zM188 238q0 -79 54.5 -121.5t134.5 -42.5q268 0 268 311v72h-33q-59 0 -104 -2.5t-97 -10t-89 -22.5t-69 -38.5t-48.5 -60.5t-16.5 -85zM223 1065v150h133v-150h-133zM526 1065v150h134v-150h-134z" />
<glyph unicode="&#xe5;" horiz-adv-x="878" d="M66 227q0 65 19 116.5t48.5 85t77.5 58t91.5 37t106.5 19.5t107.5 8.5t108.5 1.5h20v47q0 118 -50.5 176t-156.5 58q-141 0 -266 -76v108q145 64 266 64q163 0 241.5 -83t78.5 -255v-402q0 -131 8 -190h-111l-2 145q-39 -77 -119 -121t-169 -44q-70 0 -125 18t-87 45 t-52.5 62t-27.5 64.5t-7 57.5zM188 238q0 -79 54.5 -121.5t134.5 -42.5q268 0 268 311v72h-33q-59 0 -104 -2.5t-97 -10t-89 -22.5t-69 -38.5t-48.5 -60.5t-16.5 -85zM270 1153q0 71 50 120.5t120 49.5t120 -49.5t50 -120.5t-50 -120.5t-120 -49.5t-120 49.5t-50 120.5z M334 1153q0 -44 31 -75t75 -31q43 0 75 31t32 75q0 43 -32 75t-75 32q-44 0 -75 -32t-31 -75z" />
<glyph unicode="&#xe6;" horiz-adv-x="1470" d="M76 221q0 48 12.5 88t31.5 68.5t50.5 51.5t60.5 37.5t71 25t72.5 15.5t74.5 7.5t68 3t61 0.5h77v47q0 131 -43.5 200t-160.5 69q-144 0 -269 -76v108q145 64 267 64q107 0 177.5 -36t112.5 -128q46 73 126 118.5t167 45.5q121 0 204.5 -61.5t121 -161t37.5 -228.5v-57 h-617v-41q0 -136 72 -221.5t223 -85.5q58 0 136.5 21.5t117.5 47.5v-114q-128 -49 -264 -49q-138 0 -225.5 47.5t-118.5 134.5q-130 -182 -344 -182q-137 0 -218 62t-81 179zM199 221q0 -68 58 -107.5t130 -39.5q138 0 203 81t65 218v49h-47q-40 0 -66.5 -0.5t-73.5 -4.5 t-79 -11.5t-71 -22t-62.5 -35.5t-40 -53.5t-16.5 -73.5zM778 518h494q0 88 -22 156.5t-76 114t-134 45.5q-77 0 -138 -47t-92.5 -118.5t-31.5 -150.5z" />
<glyph unicode="&#xe7;" horiz-adv-x="778" d="M68 455q0 214 123.5 343.5t324.5 131.5q86 0 219 -37l-10 -107q-101 48 -199 48q-158 0 -247 -105.5t-89 -273.5q0 -160 91.5 -270.5t236.5 -110.5q105 0 205 41l12 -105q-99 -30 -237 -30l-27 -76q27 6 59 6q58 0 93.5 -30t35.5 -87q0 -36 -19 -62.5t-49.5 -40.5 t-62 -20t-63.5 -6q-79 0 -180 45l12 68q85 -53 160 -53q92 0 92 65q0 66 -80 66q-28 0 -63 -7l45 134q-186 24 -284.5 155t-98.5 318z" />
<glyph unicode="&#xe8;" horiz-adv-x="878" d="M68 442q0 215 102 351.5t279 136.5q179 0 270.5 -125t91.5 -326v-57h-621q0 -150 78.5 -249t220.5 -99q58 0 136.5 21.5t117.5 47.5v-114q-128 -49 -264 -49q-108 0 -188.5 35t-128.5 98.5t-71 145.5t-23 183zM190 518h498q0 65 -13 120t-39.5 100t-72 70.5t-106.5 25.5 q-79 0 -141.5 -47.5t-94 -118.5t-31.5 -150zM238 1264h139l166 -256h-82z" />
<glyph unicode="&#xe9;" horiz-adv-x="878" d="M68 442q0 215 102 351.5t279 136.5q179 0 270.5 -125t91.5 -326v-57h-621q0 -150 78.5 -249t220.5 -99q58 0 136.5 21.5t117.5 47.5v-114q-128 -49 -264 -49q-108 0 -188.5 35t-128.5 98.5t-71 145.5t-23 183zM190 518h498q0 65 -13 120t-39.5 100t-72 70.5t-106.5 25.5 q-79 0 -141.5 -47.5t-94 -118.5t-31.5 -150zM340 1008l166 256h141l-225 -256h-82z" />
<glyph unicode="&#xea;" horiz-adv-x="878" d="M68 442q0 215 102 351.5t279 136.5q179 0 270.5 -125t91.5 -326v-57h-621q0 -150 78.5 -249t220.5 -99q58 0 136.5 21.5t117.5 47.5v-114q-128 -49 -264 -49q-108 0 -188.5 35t-128.5 98.5t-71 145.5t-23 183zM190 518h498q0 65 -13 120t-39.5 100t-72 70.5t-106.5 25.5 q-79 0 -141.5 -47.5t-94 -118.5t-31.5 -150zM205 1008l166 256h145l166 -256h-82l-158 182l-155 -182h-82z" />
<glyph unicode="&#xeb;" horiz-adv-x="878" d="M68 442q0 215 102 351.5t279 136.5q179 0 270.5 -125t91.5 -326v-57h-621q0 -150 78.5 -249t220.5 -99q58 0 136.5 21.5t117.5 47.5v-114q-128 -49 -264 -49q-108 0 -188.5 35t-128.5 98.5t-71 145.5t-23 183zM190 518h498q0 65 -13 120t-39.5 100t-72 70.5t-106.5 25.5 q-79 0 -141.5 -47.5t-94 -118.5t-31.5 -150zM225 1065v149h133v-149h-133zM528 1065v149h134v-149h-134z" />
<glyph unicode="&#xec;" horiz-adv-x="395" d="M45 1274h139l166 -256h-82zM141 0v907h111v-907h-111z" />
<glyph unicode="&#xed;" horiz-adv-x="395" d="M45 1018l166 256h141l-225 -256h-82zM141 0v907h111v-907h-111z" />
<glyph unicode="&#xee;" horiz-adv-x="395" d="M-41 1018l166 256h145l166 -256h-82l-158 182l-155 -182h-82zM141 0v907h111v-907h-111z" />
<glyph unicode="&#xef;" horiz-adv-x="395" d="M-20 1075v150h133v-150h-133zM141 0v907h111v-907h-111zM283 1075v150h133v-150h-133z" />
<glyph unicode="&#xf0;" d="M66 455q0 97 26 181.5t76.5 151t133 104.5t187.5 38q168 0 279 -142h4q-52 210 -209 334l-192 -118l-54 75l162 101q-105 63 -239 90l20 86q187 -26 326 -113l188 119l55 -76l-165 -100q247 -235 247 -649q0 -279 -103.5 -418t-318.5 -139q-105 0 -187.5 38t-133 104.5 t-76.5 151t-26 181.5zM188 455q0 -164 78.5 -271t222.5 -110q144 3 221.5 108t77.5 273q0 170 -76.5 274.5t-222.5 104.5q-98 0 -167.5 -52t-101.5 -136t-32 -191z" />
<glyph unicode="&#xf1;" d="M127 907h109v-162h4q38 85 104.5 135t187.5 50q161 0 236.5 -93.5t75.5 -256.5v-580h-113v551q0 283 -215 283q-59 0 -106.5 -19.5t-77.5 -51t-50 -75.5t-28 -90t-8 -96v-502h-111v694q0 117 -8 213zM246 1059q12 66 47.5 111.5t95.5 48.5q42 -2 108.5 -22.5t77.5 -20.5 q69 0 89 59h65q-14 -82 -55.5 -119t-85.5 -37q-48 0 -114.5 21.5t-86.5 21.5q-32 0 -49.5 -15t-28.5 -48h-63z" />
<glyph unicode="&#xf2;" d="M66 455q0 97 26 181.5t76.5 151t133 104.5t187.5 38t187 -37.5t132.5 -103t76.5 -150.5t26 -184t-26 -183t-76.5 -149.5t-132.5 -103.5t-187 -39q-105 1 -187.5 39.5t-133 104.5t-76.5 150t-26 181zM188 455q0 -164 78.5 -271t222.5 -110q144 3 221.5 108t77.5 273 q0 170 -76.5 274.5t-222.5 104.5q-98 0 -167.5 -52t-101.5 -136t-32 -191zM336 1274h139l166 -256h-82z" />
<glyph unicode="&#xf3;" d="M66 455q0 97 26 181.5t76.5 151t133 104.5t187.5 38t187 -37.5t132.5 -103t76.5 -150.5t26 -184t-26 -183t-76.5 -149.5t-132.5 -103.5t-187 -39q-105 1 -187.5 39.5t-133 104.5t-76.5 150t-26 181zM188 455q0 -164 78.5 -271t222.5 -110q144 3 221.5 108t77.5 273 q0 170 -76.5 274.5t-222.5 104.5q-98 0 -167.5 -52t-101.5 -136t-32 -191zM334 1018l166 256h141l-225 -256h-82z" />
<glyph unicode="&#xf4;" d="M66 455q0 97 26 181.5t76.5 151t133 104.5t187.5 38t187 -37.5t132.5 -103t76.5 -150.5t26 -184t-26 -183t-76.5 -149.5t-132.5 -103.5t-187 -39q-105 1 -187.5 39.5t-133 104.5t-76.5 150t-26 181zM188 455q0 -164 78.5 -271t222.5 -110q144 3 221.5 108t77.5 273 q0 170 -76.5 274.5t-222.5 104.5q-98 0 -167.5 -52t-101.5 -136t-32 -191zM250 1018l166 256h145l166 -256h-82l-158 182l-155 -182h-82z" />
<glyph unicode="&#xf5;" d="M66 455q0 97 26 181.5t76.5 151t133 104.5t187.5 38t187 -37.5t132.5 -103t76.5 -150.5t26 -184t-26 -183t-76.5 -149.5t-132.5 -103.5t-187 -39q-105 1 -187.5 39.5t-133 104.5t-76.5 150t-26 181zM188 455q0 -164 78.5 -271t222.5 -110q144 3 221.5 108t77.5 273 q0 170 -76.5 274.5t-222.5 104.5q-98 0 -167.5 -52t-101.5 -136t-32 -191zM246 1059q12 66 47.5 111.5t95.5 48.5q42 -2 108.5 -22.5t77.5 -20.5q69 0 89 59h65q-14 -82 -55.5 -119t-85.5 -37q-48 0 -114.5 21.5t-86.5 21.5q-32 0 -49.5 -15t-28.5 -48h-63z" />
<glyph unicode="&#xf6;" d="M66 455q0 97 26 181.5t76.5 151t133 104.5t187.5 38t187 -37.5t132.5 -103t76.5 -150.5t26 -184t-26 -183t-76.5 -149.5t-132.5 -103.5t-187 -39q-105 1 -187.5 39.5t-133 104.5t-76.5 150t-26 181zM188 455q0 -164 78.5 -271t222.5 -110q144 3 221.5 108t77.5 273 q0 170 -76.5 274.5t-222.5 104.5q-98 0 -167.5 -52t-101.5 -136t-32 -191zM270 1075v150h133v-150h-133zM573 1075v150h134v-150h-134z" />
<glyph unicode="&#xf7;" horiz-adv-x="1054" d="M76 389v123h903v-123h-903zM414 102q0 47 32.5 80t81.5 33q46 0 79.5 -33.5t33.5 -79.5t-33 -78.5t-80 -35.5q-46 3 -80 36t-34 78zM414 803q0 46 32.5 79t81.5 33q46 0 79.5 -33t33.5 -79t-33 -79t-80 -36q-46 3 -80 36.5t-34 78.5z" />
<glyph unicode="&#xf8;" d="M29 -20l133 153q-96 137 -96 311q0 79 15.5 150t49 132.5t82 106.5t119.5 71t157 26q181 0 277 -101l121 142l63 -53l-131 -150q92 -133 92 -313q0 -98 -26 -182.5t-76 -150.5t-132.5 -104t-187.5 -38q-173 0 -274 94l-125 -146zM188 455q0 -128 54 -230l452 520 q-83 89 -205 89q-98 0 -167.5 -52t-101.5 -136t-32 -191zM289 158q78 -84 200 -84q143 0 221 106.5t78 274.5q0 127 -49 221z" />
<glyph unicode="&#xf9;" d="M135 328v579h111v-551q0 -134 55 -208t162 -74q76 0 131 31.5t83.5 83.5t41 105.5t12.5 111.5v501h113v-745q0 -80 6 -162h-109v162h-4q-74 -182 -293 -182q-160 0 -234.5 92t-74.5 256zM336 1274h139l166 -256h-82z" />
<glyph unicode="&#xfa;" d="M135 328v579h111v-551q0 -134 55 -208t162 -74q76 0 131 31.5t83.5 83.5t41 105.5t12.5 111.5v501h113v-745q0 -80 6 -162h-109v162h-4q-74 -182 -293 -182q-160 0 -234.5 92t-74.5 256zM334 1018l166 256h141l-225 -256h-82z" />
<glyph unicode="&#xfb;" d="M135 328v579h111v-551q0 -134 55 -208t162 -74q76 0 131 31.5t83.5 83.5t41 105.5t12.5 111.5v501h113v-745q0 -80 6 -162h-109v162h-4q-74 -182 -293 -182q-160 0 -234.5 92t-74.5 256zM250 1018l166 256h145l166 -256h-82l-158 182l-155 -182h-82z" />
<glyph unicode="&#xfc;" d="M135 328v579h111v-551q0 -134 55 -208t162 -74q76 0 131 31.5t83.5 83.5t41 105.5t12.5 111.5v501h113v-745q0 -80 6 -162h-109v162h-4q-74 -182 -293 -182q-160 0 -234.5 92t-74.5 256zM270 1075v150h133v-150h-133zM573 1075v150h134v-150h-134z" />
<glyph unicode="&#xfd;" horiz-adv-x="778" d="M10 907h123l254 -755l264 755h117l-362 -1042q-40 -115 -96 -182.5t-138 -67.5q-66 0 -121 14l10 97q61 -15 84 -15q64 0 100 50t64 149l23 80zM235 1018l166 256h141l-225 -256h-82z" />
<glyph unicode="&#xfe;" d="M123 -373v1708h113v-594h4q8 30 29.5 61t55.5 60.5t85.5 48.5t111.5 19q191 0 283 -127.5t92 -347.5q0 -135 -40 -240.5t-126 -170t-209 -64.5q-206 0 -282 186h-4v-539h-113zM236 455q0 -63 14.5 -126t44 -122t84 -96t125.5 -37q59 0 106 22.5t77 59.5t50 87.5 t28.5 102.5t8.5 109q0 77 -12.5 140.5t-41.5 119.5t-84 87.5t-132 31.5q-57 0 -104 -24t-76.5 -63t-50 -89.5t-29 -101t-8.5 -101.5z" />
<glyph unicode="&#xff;" horiz-adv-x="778" d="M10 907h123l254 -755l264 755h117l-362 -1042q-40 -115 -96 -182.5t-138 -67.5q-66 0 -121 14l10 97q61 -15 84 -15q64 0 100 50t64 149l23 80zM170 1075v150h133v-150h-133zM473 1075v150h133v-150h-133z" />
<glyph unicode="&#x131;" horiz-adv-x="395" d="M141 0v907h111v-907h-111z" />
<glyph unicode="&#x141;" horiz-adv-x="790" d="M14 340v123l129 90v690h121v-602l314 219v-121l-314 -221v-412h500v-106h-621v430z" />
<glyph unicode="&#x142;" horiz-adv-x="395" d="M23 514v123l118 94v604h111v-514l119 94v-122l-119 -95v-698h-111v608z" />
<glyph unicode="&#x152;" horiz-adv-x="1570" d="M90 608q0 127 27.5 237t84 201t154.5 144t228 53h864v-108h-483v-443h458v-106h-458v-480h503v-106h-585q-99 0 -299 -12q-101 2 -184 38t-139.5 95t-95.5 138t-57 166.5t-18 182.5zM213 621q0 -101 18 -183.5t45.5 -136t66.5 -93.5t74.5 -60.5t76 -33t65 -15.5t47.5 -3 q128 0 238 10v1029q-105 10 -189 10q-63 0 -125 -6q-35 -3 -72.5 -18t-82.5 -53t-80 -93t-58.5 -147t-23.5 -207z" />
<glyph unicode="&#x153;" horiz-adv-x="1570" d="M57 455q0 95 26 178.5t76.5 151t133.5 106.5t188 39q243 0 342 -197q101 197 326 197q94 0 165 -36t112.5 -99t62 -142t20.5 -172v-59h-620q0 -152 79.5 -250t219.5 -98q58 0 137.5 22t116.5 47v-114q-125 -49 -262 -49q-260 0 -351 184q-96 -184 -348 -184 q-106 0 -188.5 38.5t-133 105.5t-76.5 151t-26 180zM180 455q0 -166 79.5 -273.5t221.5 -107.5q285 0 285 381q0 59 -7 109.5t-26.5 102t-50.5 87t-82.5 58t-118.5 22.5q-144 0 -222.5 -106t-78.5 -273zM889 518h497q0 134 -59.5 225t-171.5 91q-125 0 -195.5 -88 t-70.5 -228z" />
<glyph unicode="&#x160;" horiz-adv-x="878" d="M96 940q0 145 111.5 234.5t281.5 89.5q122 0 246 -41l-20 -113q-89 47 -226 47q-49 0 -94.5 -11.5t-86 -35t-65 -67t-24.5 -101.5q0 -33 15.5 -63.5t36.5 -52.5t56.5 -46.5t62 -39t67.5 -35.5t59 -31q38 -21 58.5 -33t54 -34.5t52 -40t42 -45t36 -54t21 -62t8.5 -75.5 q0 -91 -35.5 -160.5t-95.5 -109.5t-130 -60t-146 -20q-181 0 -281 53l13 125q107 -72 274 -72q125 0 202 65t77 189q0 120 -179 213q-61 32 -97.5 52t-83.5 48.5t-73.5 49.5t-56.5 49.5t-45 56t-25 61t-10 70.5zM211 1548h82l156 -180l157 180h82l-166 -256h-145z" />
<glyph unicode="&#x161;" horiz-adv-x="679" d="M55 20l11 111q111 -57 235 -57q82 0 142.5 46t60.5 118q0 46 -24 81.5t-62.5 59t-85 44t-93 43t-85 49.5t-62.5 69.5t-24 97.5q0 125 83 186.5t211 61.5q44 0 108 -11t116 -30l-11 -98q-114 43 -200 43q-197 0 -197 -152q0 -33 24.5 -60.5t64 -47.5t87.5 -40t95.5 -46 t87 -57.5t64 -81t24.5 -111.5q0 -69 -29 -121t-77.5 -81t-101 -42.5t-108.5 -13.5q-133 0 -254 40zM102 1264h82l156 -181l158 181h82l-166 -256h-146z" />
<glyph unicode="&#x178;" horiz-adv-x="1075" d="M14 1243h144l379 -608l389 608h135l-463 -717v-526h-123v526zM332 1350v149h133v-149h-133zM635 1350v149h133v-149h-133z" />
<glyph unicode="&#x17d;" horiz-adv-x="878" d="M31 0v106l649 1029h-633v108h762v-108l-645 -1029h665v-106h-798zM201 1548h82l155 -180l158 180h82l-166 -256h-145z" />
<glyph unicode="&#x17e;" horiz-adv-x="778" d="M51 0v94l547 717h-526v96h655v-96l-547 -715h547v-96h-676zM150 1274h81l156 -180l158 180h82l-166 -256h-146z" />
<glyph unicode="&#x192;" d="M39 -367l29 95q35 -14 75 -17q38 1 67.5 17t50 41t37.5 66.5t27.5 84t22.5 103.5l119 626h-197v96h217l29 162q7 40 13 66t18.5 66t27 66.5t38.5 57.5t53 49t71 30.5t92 12.5q58 0 113 -30l-22 -90q-62 24 -101 24q-67 0 -110.5 -55t-71.5 -195l-33 -164h205v-96h-223 l-127 -645q-42 -211 -109 -300t-209 -89q-53 0 -102 18z" />
<glyph unicode="&#x2c6;" horiz-adv-x="382" d="M-47 1018l166 256h145l166 -256h-82l-158 182l-155 -182h-82z" />
<glyph unicode="&#x2c7;" horiz-adv-x="395" d="M-41 1274h82l156 -180l157 180h82l-166 -256h-145z" />
<glyph unicode="&#x2d8;" horiz-adv-x="395" d="M-20 1243h53q13 -49 60 -73.5t104 -24.5q139 0 165 98h54q-9 -90 -68 -147.5t-151 -57.5q-88 0 -145 55t-72 150z" />
<glyph unicode="&#x2d9;" horiz-adv-x="395" d="M131 1075v150h133v-150h-133z" />
<glyph unicode="&#x2da;" horiz-adv-x="395" d="M27 1153q0 71 49.5 120.5t120.5 49.5t120.5 -49.5t49.5 -120.5t-49.5 -120.5t-120.5 -49.5t-120.5 49.5t-49.5 120.5zM90 1153q0 -44 31.5 -75t75.5 -31q43 0 74.5 31t31.5 75q0 43 -31.5 75t-74.5 32q-44 0 -75.5 -32t-31.5 -75z" />
<glyph unicode="&#x2db;" horiz-adv-x="395" d="M141 -244q0 46 27 86q17 30 57 70q71 57 131 88h50q-88 -70 -123 -123q-31 -54 -31 -98q0 -85 94 -88q71 3 107 65l24 -14q-12 -34 -55 -74q-47 -41 -125 -41q-57 0 -104 35q-49 34 -52 94z" />
<glyph unicode="&#x2dc;" horiz-adv-x="382" d="M-53 1059q12 66 47.5 111.5t95.5 48.5q42 -2 108.5 -22.5t77.5 -20.5q69 0 89 59h65q-14 -82 -55.5 -119t-85.5 -37q-48 0 -114.5 21.5t-86.5 21.5q-32 0 -49.5 -15t-28.5 -48h-63z" />
<glyph unicode="&#x2dd;" horiz-adv-x="395" d="M-57 1196l166 256h141l-225 -256h-82zM246 1196l166 256h139l-223 -256h-82z" />
<glyph unicode="&#x3a9;" horiz-adv-x="1331" d="M84 0v119h344v129q-161 43 -252.5 179t-91.5 308q0 156 77.5 282.5t208 196.5t285.5 70t285 -69.5t207.5 -195t77.5 -280.5q0 -177 -90 -312.5t-252 -178.5v-129h342v-119h-457v326q152 30 232.5 137.5t80.5 265.5q0 185 -120.5 305.5t-305.5 120.5q-184 0 -307 -121 t-123 -305q0 -155 83.5 -267t232.5 -136v-326h-457z" />
<glyph unicode="&#x3c0;" horiz-adv-x="1013" d="M4 729v123h963v-123h-136v-532q0 -47 12.5 -71t55.5 -24q31 0 74 19v-101q-65 -30 -123 -30q-42 0 -71 11.5t-44.5 29t-24 48t-10.5 56.5t-2 68v526h-438v-729h-133v729h-123z" />
<glyph unicode="&#xe00;" horiz-adv-x="399" />
<glyph unicode="&#xe01;" horiz-adv-x="1058" d="M92 774q39 120 164 202.5t279 82.5q177 0 299 -106.5t122 -262.5v-690h-116v680q0 130 -82.5 204t-222.5 74q-222 0 -324 -188q76 -79 103 -108t26 -29q-98 -67 -98 -170v-463h-117v436q0 139 100 199z" />
<glyph unicode="&#xe02;" horiz-adv-x="972" d="M100 326v170q0 37 21.5 73.5t52 66t60.5 58t51.5 61t21.5 64.5v33q0 80 -80 80h-125v102h162q64 0 111 -48t47 -107v-58q0 -40 -21 -78t-51 -68t-60.5 -60t-51.5 -65t-21 -71v-127q0 -135 68 -201.5t207 -66.5q134 0 198 60.5t64 211.5v678h116v-676q0 -372 -378 -372 q-189 0 -290.5 94t-101.5 246z" />
<glyph unicode="&#xe03;" horiz-adv-x="989" d="M63 930v98l101 -51q46 70 135 70q63 0 101 -44t38 -112v-68q0 -40 -21 -78t-51 -68t-60.5 -60t-51.5 -65t-21 -71v-129q0 -135 68 -201.5t207 -66.5q134 0 198 60.5t64 211.5v678h117v-676q0 -372 -379 -372q-189 0 -290 94t-101 246v172q0 37 22.5 74.5t54 68.5t63.5 61 t54.5 63.5t22.5 65.5v54q0 69 -60 69q-30 0 -57.5 -20.5t-42.5 -52.5z" />
<glyph unicode="&#xe04;" horiz-adv-x="1060" d="M102 0v690q0 166 116 267.5t312 101.5q195 0 311.5 -102t116.5 -267v-690h-116v692q0 128 -80 197t-232 69q-146 0 -228.5 -69.5t-82.5 -196.5v-252h8q18 40 65.5 70.5t100.5 30.5h174v-117h-174q-91 0 -132.5 -56t-41.5 -147v-221h-117z" />
<glyph unicode="&#xe05;" horiz-adv-x="1085" d="M102 0v721q0 127 63.5 214t174.5 118l203 -121l202 121q111 -30 174.5 -117t63.5 -215v-721h-117v731q0 85 -29.5 136t-97.5 75l-196 -111l-195 113q-70 -24 -99.5 -76.5t-29.5 -136.5v-291h8q18 40 65.5 70.5t100.5 30.5h174v-117h-174q-91 0 -132.5 -56t-41.5 -147 v-221h-117z" />
<glyph unicode="&#xe06;" horiz-adv-x="1099" d="M113 930v98l100 -51q46 70 135 70q63 0 101 -44t38 -112v-68q0 -40 -21 -78t-51 -68l-60 -60t-51 -65t-21 -71v-145q30 -96 122 -174t181 -78q149 0 222 72.5t73 224.5v653h116v-651q0 -189 -94 -293t-266 -104q-227 0 -352 184v-170h-119v498q0 37 22.5 74.5t54 68.5 t63.5 61t54.5 63.5t22.5 65.5v54q0 69 -59 69q-30 0 -58 -20.5t-43 -52.5z" />
<glyph unicode="&#xe07;" horiz-adv-x="1030" d="M41 1034h123l262 -932h78q133 0 231.5 126.5t98.5 322.5q0 204 -73.5 293.5t-195.5 89.5q-40 0 -82 -10l-4 110q54 13 105 13q163 0 268.5 -132t105.5 -364q0 -167 -65 -294t-171.5 -192t-236.5 -65h-153q-44 161 -143.5 509t-147.5 525z" />
<glyph unicode="&#xe08;" horiz-adv-x="1030" d="M80 911q154 148 381 148q228 0 354.5 -138t126.5 -389q0 -235 -125 -383.5t-321 -148.5h-131l-91 383q-10 47 -32 67.5t-62 20.5h-39v104h70q59 0 104 -33t58 -89l86 -353h51q131 0 219 116t88 316q0 216 -87 318t-269 102q-98 0 -185 -36t-147 -95z" />
<glyph unicode="&#xe09;" horiz-adv-x="1058" d="M74 471v104h57q65 0 105 -40.5t40 -102.5v-123q0 -108 59.5 -166.5t176.5 -58.5q109 0 202.5 83t125.5 193v226q0 175 -89 270.5t-257 95.5q-96 0 -194.5 -39t-168.5 -96l-55 92q160 150 416 150q220 0 342 -121t122 -332v-606h-116v182q-112 -196 -336 -196 q-162 0 -251 80t-89 221v110q0 74 -64 74h-26z" />
<glyph unicode="&#xe0a;" horiz-adv-x="978" d="M104 326v170q0 37 21 73.5t51 66t60.5 58t51.5 61t21 64.5v33q0 80 -80 80h-123v102h160q64 0 111 -49t47 -108v-56q0 -40 -21 -78t-51 -68t-60.5 -60t-51.5 -65t-21 -71v-127q0 -136 67.5 -202t207.5 -66q133 0 198.5 61t65.5 211v187q0 64 -41.5 105.5t-106.5 41.5h-20 q1 0 -4 11t-10 23l-5 11q1 0 46 74.5t89.5 149.5t43.5 75h129l-181 -286q81 -17 127.5 -82t46.5 -156v-152q0 -372 -378 -372q-190 0 -290 93.5t-100 246.5z" />
<glyph unicode="&#xe0b;" horiz-adv-x="995" d="M61 930v98l101 -51q46 70 135 70q63 0 101 -44t38 -112v-68q0 -40 -21 -78t-51 -68t-60.5 -60t-51.5 -65t-21 -71v-129q0 -268 277 -268q134 0 199 60.5t65 211.5v187q0 65 -40.5 106t-104.5 41h-21q1 0 -3.5 11t-9.5 23l-5 11q1 0 46 74.5t89 149.5t43 75h129l-180 -286 q81 -17 127.5 -82t46.5 -156v-152q0 -182 -94.5 -277t-286.5 -95q-189 0 -290 94t-103 246v172q0 37 22.5 74.5t54.5 68.5t63.5 61t54 63.5t22.5 65.5v54q0 69 -60 69q-30 0 -57.5 -20.5t-42.5 -52.5z" />
<glyph unicode="&#xe0c;" horiz-adv-x="1701" d="M92 774q41 120 157.5 202.5t276.5 82.5q181 0 299.5 -105t118.5 -264v-356q47 -98 136.5 -173t174.5 -75q117 0 172.5 61t55.5 203v684h116v-696q0 -171 -85.5 -261.5t-217.5 -90.5q-215 0 -346 190v-176h-123v680q0 131 -81 204.5t-220 73.5q-213 0 -315 -188 q8 -9 21.5 -23t42 -44l47.5 -50t18 -20q-98 -68 -98 -170v-303q0 -28 17.5 -45t51.5 -17h45v-98h-96q-54 0 -94.5 44t-40.5 110v282q0 54 27.5 112.5t72.5 86.5z" />
<glyph unicode="&#xe0d;" horiz-adv-x="1701" d="M92 774q41 120 157.5 202.5t276.5 82.5q181 0 299.5 -105t118.5 -264v-321q0 -119 65 -184.5t185 -65.5q93 0 178.5 76.5t110.5 175.5v663h116v-932q0 -194 -111.5 -304.5t-309.5 -110.5q-131 0 -252 43l14 102q115 -45 234 -45q142 0 225.5 73t83.5 203v125 q-43 -73 -124.5 -124.5t-178.5 -51.5q-159 0 -256 92t-97 248v328q0 131 -81 204.5t-220 73.5q-213 0 -315 -188q8 -9 21.5 -23t42 -44l47.5 -50t18 -20q-98 -68 -98 -170v-303q0 -28 17.5 -45t51.5 -17h45v-98h-96q-54 0 -94.5 44t-40.5 110v282q0 54 27.5 112.5t72.5 86.5 z" />
<glyph unicode="&#xe0e;" horiz-adv-x="1099" d="M68 0v98h38q64 0 64 62v276q0 55 25.5 113t70.5 86l-133 139q40 119 161 202t281 83q181 0 301.5 -105.5t120.5 -263.5v-1100h-172q-99 123 -262 123q-158 0 -274 -98l-27 92q52 48 129 77.5t162 29.5q97 0 183.5 -37.5t144.5 -104.5v1008q0 130 -83 204t-223 74 q-113 0 -194.5 -50.5t-128.5 -137.5q8 -9 21.5 -23t42 -44l47.5 -50t18 -20q-94 -65 -94 -170v-318q0 -62 -35.5 -103.5t-87.5 -41.5h-96z" />
<glyph unicode="&#xe0f;" horiz-adv-x="1099" d="M68 0v98h38q64 0 64 62v276q0 55 25.5 113t70.5 86l-133 139q40 119 161 202t281 83q181 0 301.5 -105.5t120.5 -263.5v-1100h-125l-251 148q-31 -71 -98 -115.5t-134 -44.5q-119 0 -196 47l24 92q87 -41 164 -41q78 0 132.5 55.5t78.5 137.5l289 -172v983q0 130 -83 204 t-223 74q-113 0 -194.5 -50.5t-128.5 -137.5q8 -9 21.5 -23t42 -44l47.5 -50t18 -20q-94 -65 -94 -170v-318q0 -62 -35.5 -103.5t-87.5 -41.5h-96z" />
<glyph unicode="&#xe10;" horiz-adv-x="1044" d="M78 911q154 148 381 148q153 0 268 -72l129 141h139l-192 -204q68 -58 109.5 -166.5t41.5 -225.5q0 -234 -128.5 -383t-325.5 -149h-131l-90 383q-10 47 -32.5 67.5t-62.5 20.5h-39v104h70q59 0 104 -33t58 -89l86 -353h51q133 0 226.5 116.5t93.5 315.5 q0 207 -101 313.5t-274 106.5q-98 0 -185 -36t-147 -95zM145 -303h105q59 0 115 29t86 73q32 -45 83 -73.5t109 -28.5h139v147h113v-254h-244q-128 0 -200 93q-30 -46 -88 -69.5t-121 -23.5h-97v107z" />
<glyph unicode="&#xe11;" horiz-adv-x="1112" d="M53 930v98l101 -51q27 37 56.5 53.5t72.5 16.5q58 0 97.5 -45t39.5 -111q53 74 130.5 118t158.5 44q144 0 222.5 -88t78.5 -260v-705h-117v723q0 111 -50 167t-134 56q-85 0 -165 -55t-132.5 -135.5t-84.5 -166.5t-32 -151v-438h-117v428q0 68 19.5 135.5t43 111t47.5 88 t29 66.5v56q0 69 -53 69q-30 0 -57.5 -20.5t-42.5 -52.5z" />
<glyph unicode="&#xe12;" horiz-adv-x="1794" d="M102 518q0 229 106.5 375.5t291.5 169.5l125 -135l116 137q133 -15 217 -107.5t84 -226.5v-397q47 -99 134 -173.5t172 -74.5q117 0 172 61t55 203v684h117v-696q0 -171 -85.5 -261.5t-217.5 -90.5q-209 0 -340 190v-176h-123v741q0 85 -45 146.5t-123 73.5 q-131 -146 -133 -146l-138 137q-124 -28 -196 -144.5t-72 -289.5q0 -103 30 -186t78 -132t102 -74.5t108 -25.5q57 0 110 15v-105q-42 -16 -127 -16q-77 0 -150.5 35.5t-133.5 100t-97 166t-37 222.5z" />
<glyph unicode="&#xe13;" horiz-adv-x="1705" d="M92 774q41 120 157.5 202.5t276.5 82.5q181 0 299.5 -105t118.5 -264v-362q0 -127 61 -185.5t187 -58.5q97 0 185 91t110 216v643h117v-1034h-119v182q-43 -91 -127.5 -143.5t-188.5 -52.5q-161 0 -251.5 86t-90.5 256v352q0 131 -81 204.5t-220 73.5q-213 0 -315 -188 q8 -9 21.5 -23t42 -44l47.5 -50t18 -20q-98 -68 -98 -170v-303q0 -28 17.5 -45t51.5 -17h45v-98h-96q-54 0 -94.5 44t-40.5 110v282q0 54 27.5 112.5t72.5 86.5z" />
<glyph unicode="&#xe14;" horiz-adv-x="1142" d="M86 506q0 154 59.5 279t172.5 199.5t260 74.5q107 0 195.5 -34t146 -92.5t89 -136.5t31.5 -167v-629h-116v631q0 149 -91.5 234t-254.5 85q-170 0 -271.5 -118t-101.5 -326q0 -89 19.5 -161t50 -116t71 -74t79 -41.5t77.5 -11.5q58 0 110 15v-107q-42 -16 -127 -16 q-56 0 -112 20t-108 62t-91.5 101t-63.5 144t-24 185z" />
<glyph unicode="&#xe15;" horiz-adv-x="1173" d="M86 518q0 230 106 376t291 169l148 -145l139 147q133 -15 217 -107.5t84 -226.5v-731h-117v741q0 90 -43.5 148t-126.5 67q-151 -151 -153 -151l-160 147q-124 -28 -196 -144.5t-72 -289.5q0 -103 30 -186t77.5 -132t101.5 -74.5t108 -25.5q58 0 111 15v-105 q-42 -16 -127 -16q-77 0 -150.5 35.5t-133.5 100t-97 166t-37 222.5z" />
<glyph unicode="&#xe16;" horiz-adv-x="1058" d="M92 774q40 119 161.5 202t281.5 83q181 0 301 -105.5t120 -263.5v-690h-116v680q0 131 -82.5 204.5t-222.5 73.5q-113 0 -195 -50.5t-129 -137.5q8 -9 21.5 -23t42 -44l47.5 -50t18 -20q-98 -68 -98 -170v-303q0 -28 17.5 -45t51.5 -17h45v-98h-96q-54 0 -94.5 44 t-40.5 110v282q0 54 27.5 112.5t72.5 86.5z" />
<glyph unicode="&#xe17;" horiz-adv-x="1054" d="M102 0v1034h117v-170q128 195 375 195q160 0 259 -97.5t99 -277.5v-684h-116v684q0 137 -67 205.5t-194 68.5q-116 0 -207.5 -64t-148.5 -185v-709h-117z" />
<glyph unicode="&#xe18;" horiz-adv-x="995" d="M88 334v63h109v-63q0 -129 72.5 -189.5t230.5 -60.5q164 0 231.5 53t67.5 180v62q0 55 -37.5 91t-102.5 42l-350 35q-99 9 -160 75.5t-61 168.5q0 118 103 193t282 75q200 0 377 -76l-16 -109q-72 34 -169 56t-171 22q-155 0 -228 -42.5t-73 -116.5q0 -61 38 -99t91 -43 l358 -35q94 -9 162.5 -75.5t68.5 -161.5v-62q0 -176 -96.5 -253.5t-314.5 -77.5q-215 0 -313.5 84t-98.5 264z" />
<glyph unicode="&#xe19;" horiz-adv-x="1050" d="M102 389v645h117v-614q0 -336 307 -336q97 0 187 80t118 192v678h117v-1034h-119v170q-100 -184 -358 -184q-168 0 -268.5 107t-100.5 296z" />
<glyph unicode="&#xe1a;" horiz-adv-x="1073" d="M102 375v659h117v-659q0 -133 87.5 -212t230.5 -79t230 79t87 212v659h117v-659q0 -186 -116.5 -287.5t-317.5 -101.5t-318 101.5t-117 287.5z" />
<glyph unicode="&#xe1b;" horiz-adv-x="1073" d="M102 375v659h117v-659q0 -133 87.5 -212t230.5 -79t230 79t87 212v1030h117v-1030q0 -186 -116.5 -287.5t-317.5 -101.5t-318 101.5t-117 287.5z" />
<glyph unicode="&#xe1c;" horiz-adv-x="1161" d="M100 0v864q0 73 49.5 121.5t118.5 48.5h82v-112h-59q-37 0 -57.5 -20t-20.5 -58v-617l-6 -80h6q17 54 20 60l328 575h39l326 -575q3 -6 20 -60h6q-6 49 -6 80v807h113v-1034h-123l-356 616l-357 -616h-123z" />
<glyph unicode="&#xe1d;" horiz-adv-x="1161" d="M100 0v864q0 73 49.5 121.5t118.5 48.5h82v-112h-59q-37 0 -57.5 -20t-20.5 -58v-617l-6 -80h6q17 54 20 60l328 575h39l326 -575q3 -6 20 -60h6q-6 49 -6 80v1178h113v-1405h-123l-356 616l-357 -616h-123z" />
<glyph unicode="&#xe1e;" horiz-adv-x="1236" d="M49 1034h121l139 -831l6 -78h4q7 60 13 78l262 780h49l262 -780l13 -78h4q2 60 6 78l141 831h119l-205 -1034h-109l-253 760h-5l-254 -760h-108z" />
<glyph unicode="&#xe1f;" horiz-adv-x="1247" d="M49 1034h121l139 -831l6 -78h4q7 60 13 78l262 780h49l262 -780l13 -78h4q2 60 6 78l207 1202h118l-270 -1405h-109l-253 760h-5l-254 -760h-108z" />
<glyph unicode="&#xe20;" horiz-adv-x="1099" d="M68 0v98h38q64 0 64 62v276q0 55 25.5 113t70.5 86l-133 139q40 119 161 202t281 83q181 0 301.5 -105.5t120.5 -263.5v-690h-116v680q0 130 -83 204t-223 74q-113 0 -194.5 -50.5t-128.5 -137.5q8 -9 21.5 -23t42 -44l47.5 -50t18 -20q-94 -65 -94 -170v-318 q0 -62 -35.5 -103.5t-87.5 -41.5h-96z" />
<glyph unicode="&#xe21;" horiz-adv-x="1052" d="M102 0v1034h117v-700q46 -96 144 -173t184 -77q287 0 287 299v651h116v-653q0 -185 -95.5 -290t-266.5 -105q-217 0 -363 190v-176h-123z" />
<glyph unicode="&#xe22;" horiz-adv-x="1034" d="M102 307q0 204 193 262v6q-91 15 -142 79.5t-51 162.5q0 97 64.5 161t157.5 64q62 0 118 -16l-12 -104q-33 8 -72 8q-67 0 -107 -37.5t-40 -104.5q0 -73 58.5 -117t136.5 -44h151q2 -23 6.5 -59t5.5 -48h-139q-97 0 -158 -55.5t-61 -147.5q0 -114 87.5 -173.5 t238.5 -59.5q278 0 278 299v651h117v-651q0 -183 -96 -290t-291 -107q-214 0 -328.5 82.5t-114.5 238.5z" />
<glyph unicode="&#xe23;" horiz-adv-x="899" d="M90 786q0 117 93.5 195t242.5 78q91 0 178.5 -22t147.5 -60q-17 -100 -19 -100q-62 33 -142.5 54t-144.5 21q-122 0 -183.5 -43.5t-61.5 -120.5q0 -44 26.5 -79t70 -56.5t99 -42.5t113.5 -37.5t113.5 -42t99 -54.5t70 -75.5t26.5 -105.5q0 -142 -97 -225.5t-286 -83.5 q-199 0 -332 71l17 111q74 -33 154.5 -55.5t134.5 -22.5q152 0 222 53t70 136q0 55 -34 96t-87.5 65.5t-119 45.5t-131 44.5t-119 53.5t-87.5 81.5t-34 120.5z" />
<glyph unicode="&#xe24;" horiz-adv-x="1058" d="M92 774q40 119 161.5 202t281.5 83q181 0 301 -105.5t120 -263.5v-1100h-116v1090q0 131 -82.5 204.5t-222.5 73.5q-113 0 -195 -50.5t-129 -137.5q8 -9 21.5 -23t42 -44l47.5 -50t18 -20q-98 -68 -98 -170v-303q0 -28 17.5 -45t51.5 -17h45v-98h-96q-54 0 -94.5 44 t-40.5 110v282q0 54 27.5 112.5t72.5 86.5z" />
<glyph unicode="&#xe25;" horiz-adv-x="1021" d="M74 279q0 150 115 239.5t331 89.5h283v88q0 124 -72 191t-237 67q-100 0 -193 -36t-160 -95l-51 88q74 67 183.5 107.5t228.5 40.5q202 0 310 -104.5t108 -295.5v-659h-117v502h-301q-152 0 -235 -61t-83 -162q0 -85 55.5 -136t157.5 -51q39 0 105 12v-104 q-52 -14 -123 -14q-136 0 -220.5 85t-84.5 208z" />
<glyph unicode="&#xe26;" horiz-adv-x="1099" d="M68 0v98h38q64 0 64 62v276q0 55 25.5 113t70.5 86l-133 139q40 119 161 202t281 83q181 0 301.5 -105.5t120.5 -263.5v-1100h-116v1090q0 130 -83 204t-223 74q-113 0 -194.5 -50.5t-128.5 -137.5q8 -9 21.5 -23t42 -44l47.5 -50t18 -20q-94 -65 -94 -170v-318 q0 -62 -35.5 -103.5t-87.5 -41.5h-96z" />
<glyph unicode="&#xe27;" horiz-adv-x="972" d="M70 958q69 46 161 74.5t185 28.5q97 0 183.5 -34t154 -98t106.5 -165.5t39 -228.5q0 -261 -126.5 -406t-348.5 -145q-204 0 -340 84l31 100q167 -78 293 -78q181 0 277.5 112t96.5 335q0 107 -29 189t-80 131t-115.5 73t-141.5 24q-74 0 -162 -28t-152 -70z" />
<glyph unicode="&#xe28;" horiz-adv-x="1064" d="M100 0v690q0 166 116 267.5t312 101.5q125 0 244 -66l115 135h125l-154 -192q98 -91 98 -246v-690h-116v692q0 128 -80 197t-232 69q-146 0 -228.5 -69.5t-82.5 -196.5v-252h8q18 40 65.5 70.5t100.5 30.5h174v-117h-174q-91 0 -132.5 -56t-41.5 -147v-221h-117z" />
<glyph unicode="&#xe29;" horiz-adv-x="1134" d="M100 375v659h117v-659q0 -146 86 -218.5t234 -72.5t233.5 72.5t85.5 218.5v176h-233v104h233v379h117v-379h145l-24 -104h-121v-176q0 -186 -117.5 -287.5t-318.5 -101.5q-202 0 -319.5 101.5t-117.5 287.5z" />
<glyph unicode="&#xe2a;" horiz-adv-x="1050" d="M72 279q0 150 115 239.5t331 89.5h283v88q0 124 -72 191t-237 67q-100 0 -193 -36t-160 -95l-51 88q74 67 183.5 107.5t228.5 40.5q139 0 262 -74l119 143h127l-174 -206q44 -53 64 -114.5t20 -148.5v-659h-117v502h-301q-152 0 -235 -61t-83 -162q0 -85 55.5 -136 t157.5 -51q39 0 105 12v-104q-52 -14 -123 -14q-136 0 -220.5 85t-84.5 208z" />
<glyph unicode="&#xe2b;" horiz-adv-x="1007" d="M102 0v1034h117v-459l522 459h158l-354 -295q199 -60 264 -264q10 -30 27 -79t52 -153.5t58.5 -173.5t22.5 -69h-131l-154 475q-27 85 -76 130.5t-143 66.5l-246 -217v-455h-117z" />
<glyph unicode="&#xe2c;" horiz-adv-x="1159" d="M100 0v1034h113v-807l-6 -80h6q17 54 20 60l328 575h39l326 -575q3 -6 20 -60h6q-6 49 -6 80v592q0 89 -41 139t-114 50h-37q1 0 -4 11t-10 23l-5 11q1 0 50 88t97.5 176t47.5 88h129l-197 -340q87 -12 142 -84.5t55 -169.5v-811h-123l-356 616l-357 -616h-123z" />
<glyph unicode="&#xe2d;" horiz-adv-x="1042" d="M94 332v96q0 71 51.5 115.5t126.5 44.5h127v-107h-131q-33 0 -51 -19t-18 -48v-88q0 -238 309 -238q173 0 257.5 102.5t84.5 331.5q0 209 -90 319.5t-260 110.5q-98 0 -189.5 -38t-160.5 -97q1 0 -12 22.5t-26.5 44.5t-13.5 21q172 154 402 154q223 0 345 -145t122 -398 q0 -259 -117.5 -394.5t-337.5 -135.5q-209 0 -313.5 93t-104.5 253z" />
<glyph unicode="&#xe2e;" horiz-adv-x="1042" d="M94 332v96q0 71 51.5 115.5t126.5 44.5h127v-107h-131q-33 0 -51 -19t-18 -48v-88q0 -238 309 -238q173 0 257.5 102.5t84.5 331.5q0 209 -90 319.5t-260 110.5q-98 0 -189.5 -38t-160.5 -97q1 0 -12 22.5t-26.5 44.5t-13.5 21q172 154 402 154q146 0 250 -66l108 135 h133l-160 -200q136 -145 136 -412q0 -259 -117.5 -394.5t-337.5 -135.5q-209 0 -313.5 93t-104.5 253z" />
<glyph unicode="&#xe2f;" horiz-adv-x="974" d="M96 971v63h111v-49q0 -111 71 -178.5t189 -67.5q121 0 208 84.5t87 182.5v28h110v-1034h-116v799h-6q-31 -70 -119 -114t-185 -44q-161 0 -255.5 90.5t-94.5 239.5z" />
<glyph unicode="&#xe30;" horiz-adv-x="518" d="M102 291v69h115v-55q0 -24 19 -38.5t49 -14.5h141v-98h-180q-57 0 -100.5 38.5t-43.5 98.5zM102 834v69h115v-55q0 -24 19 -38.5t49 -14.5h141v-99h-180q-57 0 -100.5 39t-43.5 99z" />
<glyph unicode="&#xe31;" horiz-adv-x="0" d="M-532 1329v70h116v-64q0 -23 18.5 -38t47.5 -15h407v-96h-448q-56 0 -98.5 41t-42.5 102z" />
<glyph unicode="&#xe32;" horiz-adv-x="874" d="M37 922q144 137 373 137q162 0 262 -103.5t100 -265.5v-690h-117v680q0 130 -68.5 202t-193.5 72q-176 0 -313 -120z" />
<glyph unicode="&#xe33;" horiz-adv-x="886" d="M-356 1339q0 75 52.5 128t127.5 53t127.5 -53t52.5 -128t-52.5 -127.5t-127.5 -52.5t-127.5 52.5t-52.5 127.5zM-279 1341q0 -44 30 -74t73 -30t72.5 30t29.5 74q0 43 -29.5 73t-72.5 30t-73 -30t-30 -73zM49 922q144 137 373 137q162 0 262 -103.5t100 -265.5v-690h-116 v680q0 130 -68.5 202t-193.5 72q-177 0 -314 -120z" />
<glyph unicode="&#xe34;" horiz-adv-x="0" d="M-862 1186v110h760v-110h-760z" />
<glyph unicode="&#xe35;" horiz-adv-x="0" d="M-862 1186v110h657v148h103v-258h-760z" />
<glyph unicode="&#xe36;" horiz-adv-x="0" d="M-862 1186v110h565q-10 20 -10 52q0 60 40.5 102.5t100.5 42.5q61 0 103.5 -42.5t42.5 -102.5q0 -67 -45 -114.5t-113 -47.5h-684zM-225 1348q0 -27 18 -45.5t45 -18.5q26 0 45 19t19 45q0 27 -18.5 45t-45.5 18q-28 0 -45.5 -17.5t-17.5 -45.5z" />
<glyph unicode="&#xe37;" horiz-adv-x="0" d="M-862 1186v110h436v148h102v-148h119v148h103v-258h-760z" />
<glyph unicode="&#xe38;" horiz-adv-x="0" d="M-332 -119h121q46 0 77.5 -30.5t31.5 -75.5v-289h-97v256q0 25 -12 36t-41 11h-80v92z" />
<glyph unicode="&#xe39;" horiz-adv-x="0" d="M-655 -119h182v-215q0 -59 35 -92t102 -33q139 0 139 133v207h91v-207q0 -96 -61 -151t-169 -55q-101 0 -159 55t-58 143v131h-102v84z" />
<glyph unicode="&#xe3a;" horiz-adv-x="0" d="M-258 -201q0 40 27 66t67 26t66 -26t26 -66q0 -38 -26 -64t-66 -26t-67 26t-27 64z" />
<glyph unicode="&#xe3f;" horiz-adv-x="1077" d="M162 0v1237h287v199h61v-197q182 0 283.5 -76.5t101.5 -226.5q0 -122 -66 -201.5t-186 -99.5v-10q125 -6 204 -92.5t79 -213.5q0 -170 -107.5 -244.5t-308.5 -74.5v-195h-61v195h-287zM281 106h168v478h-168v-478zM281 692h168v438h-168v-438zM510 106q155 0 221 55 t66 177q0 120 -79.5 182t-207.5 62v-476zM510 692q264 0 264 226q0 116 -59 164t-205 48v-438z" />
<glyph unicode="&#xe40;" horiz-adv-x="374" d="M135 0v1034h117v-1034h-117z" />
<glyph unicode="&#xe41;" horiz-adv-x="757" d="M129 0v1034h117v-1034h-117zM520 0v1034h117v-1034h-117z" />
<glyph unicode="&#xe42;" horiz-adv-x="501" d="M12 1556q58 84 166 138.5t213 54.5q159 0 307 -72l-6 -102q-63 35 -140.5 55.5t-145.5 20.5q-94 0 -158.5 -22.5t-122.5 -76.5q83 -47 145 -157t62 -232v-1163h-117v1180q0 252 -190 354q0 -2 -13 22z" />
<glyph unicode="&#xe43;" horiz-adv-x="466" d="M-49 1610q50 74 125.5 113.5t167.5 39.5q139 0 211.5 -56.5t72.5 -145.5q0 -57 -21 -105.5t-51 -84.5l-60 -72t-51 -86.5t-21 -110.5v-1102h-117v1130q0 56 22 104t53.5 83t62.5 67.5t53 73t22 84.5q0 57 -43 93t-135 36q-65 0 -128.5 -32.5t-107.5 -90.5z" />
<glyph unicode="&#xe44;" horiz-adv-x="503" d="M-96 1608v86h622v-86q-90 -47 -130 -126.5t-40 -205.5v-1276h-116v1229q0 123 47 225.5t133 153.5h-516z" />
<glyph unicode="&#xe45;" horiz-adv-x="876" d="M37 922q144 137 373 137q162 0 262 -103.5t100 -265.5v-1100h-117v1090q0 130 -68.5 202t-193.5 72q-176 0 -313 -120z" />
<glyph unicode="&#xe46;" horiz-adv-x="1007" d="M90 817q0 100 69 167t171 79l164 -127l165 129q107 -17 169.5 -98.5t62.5 -188.5v-1200h-117v1202q0 82 -27 129.5t-94 61.5l-159 -127l-168 133q-70 -12 -107 -55.5t-37 -104.5q0 -64 38.5 -101.5t101.5 -37.5q20 0 36 4l7 -78q-24 -6 -60 -6q-81 0 -148 62.5t-67 156.5 z" />
<glyph unicode="&#xe47;" horiz-adv-x="0" d="M-797 1348q0 78 52.5 127t158.5 49h207q117 0 117 90v28h98v-34q0 -71 -48 -119.5t-128 -48.5h-242q-114 0 -114 -86q0 -37 26.5 -59.5t83.5 -22.5q29 0 56 12t42 25t35 34q22 -22 36 -34t39 -23.5t52 -11.5h142v-96h-127q-35 0 -74.5 18.5t-67.5 56.5q-50 -75 -170 -75 q-68 0 -121 48t-53 122z" />
<glyph unicode="&#xe48;" horiz-adv-x="0" d="M-205 1571v219h103v-219h-103z" />
<glyph unicode="&#xe49;" horiz-adv-x="0" d="M-483 1731v94h121q43 0 71.5 -26t28.5 -62v-43q0 -29 31 -29h284v-94h-311q-37 0 -65.5 24t-28.5 62v43q0 17 -7 24t-24 7h-100z" />
<glyph unicode="&#xe4a;" horiz-adv-x="0" d="M-553 1647q0 52 42.5 95.5t109.5 49.5l104 -106l88 108q70 -3 113 -43.5t43 -97.5q0 -19 -6 -37q129 42 129 174q0 42 -7 74h89q4 -27 4 -64q0 -97 -64.5 -163t-154.5 -66h-80l-4 10q14 22 14 51q0 69 -62 86l-102 -119l-111 111q-53 -22 -53 -80q0 -23 12 -47l-8 -12 h-86q-10 42 -10 76z" />
<glyph unicode="&#xe4b;" horiz-adv-x="0" d="M-338 1665v72l137 -4l-4 100h101l-5 -100l138 4v-72l-138 4l5 -98h-101l4 98z" />
<glyph unicode="&#xe4c;" horiz-adv-x="0" d="M-324 1421v37q0 70 48.5 116t132.5 46h147v-96h-115q-50 0 -73 -20t-23 -64v-19h-117z" />
<glyph unicode="&#xe4d;" horiz-adv-x="0" d="M-356 1339q0 75 52.5 128t127.5 53t127.5 -53t52.5 -128t-52.5 -127.5t-127.5 -52.5t-127.5 52.5t-52.5 127.5zM-279 1341q0 -44 30 -74t73 -30t72.5 30t29.5 74q0 43 -29.5 73t-72.5 30t-73 -30t-30 -73z" />
<glyph unicode="&#xe4e;" horiz-adv-x="0" />
<glyph unicode="&#xe4f;" horiz-adv-x="1052" d="M135 410q0 164 116.5 280.5t280.5 116.5t281 -116.5t117 -280.5q0 -166 -117 -283t-281 -117t-280.5 117t-116.5 283zM197 410q0 -140 98 -239t237 -99t237.5 99t98.5 239q0 138 -98.5 236.5t-237.5 98.5t-237 -98.5t-98 -236.5zM301 408q0 96 67.5 163.5t161.5 67.5 q96 0 164 -67.5t68 -161.5q0 -96 -68 -164t-162 -68q-96 0 -163.5 68t-67.5 162zM360 408q0 -70 50 -120t122 -50q69 0 118.5 50t49.5 122q0 69 -50 118.5t-120 49.5q-69 0 -119.5 -50t-50.5 -120z" />
<glyph unicode="&#xe50;" horiz-adv-x="1067" d="M82 399q0 199 126 305.5t327 106.5q199 0 324.5 -106.5t125.5 -305.5q0 -201 -125 -307t-325 -106q-201 0 -327 106t-126 307zM188 399q0 -145 100.5 -230t246.5 -85q145 0 244.5 85t99.5 230q0 144 -100 229t-244 85q-146 0 -246.5 -85t-100.5 -229z" />
<glyph unicode="&#xe51;" horiz-adv-x="1050" d="M72 410q0 177 123 284t317 107q214 0 336.5 -125.5t122.5 -341.5q0 -233 -128 -376.5t-335 -143.5h-35l14 98h37q144 0 242 110.5t98 313.5q0 171 -94 267.5t-260 96.5q-148 0 -243 -81t-95 -209q0 -124 69 -187t167 -63q78 0 133 18l8 -92q-67 -31 -141 -31 q-141 0 -238.5 94t-97.5 261z" />
<glyph unicode="&#xe52;" horiz-adv-x="1185" d="M96 336v659h107v-659q0 -106 65 -169t160 -63h336q89 0 154 68t65 166v160q0 89 -32 133.5t-103 56.5l-137 -125l-150 125q-108 -26 -108 -143q0 -106 118 -142q-6 -18 -18.5 -46t-17.5 -42q-88 22 -136.5 81.5t-48.5 148.5q0 96 61.5 162t155.5 81l144 -122l131 122 q115 -7 181.5 -86.5t66.5 -207.5v-156q0 -137 -96 -237.5t-230 -100.5h-344q-147 0 -235.5 95.5t-88.5 240.5z" />
<glyph unicode="&#xe53;" horiz-adv-x="1085" d="M80 385q0 152 79.5 253.5t211.5 145.5l192 -174l162 178q113 -16 185.5 -96.5t72.5 -212.5v-479h-104v483q0 160 -142 195l-172 -189l-194 181q-93 -40 -139 -115t-46 -172q0 -142 84 -223.5t199 -81.5q56 0 123 18q2 -20 6 -44t6 -42q-68 -24 -153 -24 q-155 0 -263 112.5t-108 286.5z" />
<glyph unicode="&#xe54;" horiz-adv-x="1075" d="M82 362q0 196 124.5 310t317.5 114h158q114 0 165.5 49t51.5 142v18h113v-20q0 -133 -77 -211t-214 -78h-195q-156 0 -246 -82t-90 -237q0 -141 72.5 -212t186.5 -71q96 0 184 59q-47 59 -47 140q0 96 55 151t137 55h99q-4 -20 -13 -52t-12 -50h-43q-55 0 -90 -34 t-35 -85q0 -84 62 -127t174 -43h67q-3 -22 -8 -51.5t-8 -46.5h-68q-145 0 -239 84q-39 -44 -99.5 -71t-124.5 -27q-166 0 -262 102t-96 274z" />
<glyph unicode="&#xe55;" horiz-adv-x="1075" d="M82 362q0 185 101 295t294 125q-35 15 -55.5 45.5t-20.5 69.5q0 56 41 92.5t99 36.5t97.5 -36.5t39.5 -90.5q0 -39 -24 -72.5t-62 -40.5h98q115 0 162 48.5t47 142.5v18h113v-20q0 -131 -75 -208t-216 -77h-211q-153 0 -236.5 -83t-83.5 -240q0 -141 72.5 -212t186.5 -71 q96 0 184 59q-47 59 -47 140q0 96 55 151t137 55h99q-4 -20 -13 -52t-12 -50h-43q-55 0 -90 -34t-35 -85q0 -84 62 -127t174 -43h67q-3 -22 -8 -51.5t-8 -46.5h-68q-145 0 -239 84q-39 -44 -99.5 -71t-124.5 -27q-166 0 -262 102t-96 274zM469 895q0 -31 20.5 -51.5 t51.5 -20.5q29 0 49 20.5t20 51.5q0 28 -20 48t-49 20q-30 0 -51 -20t-21 -48z" />
<glyph unicode="&#xe56;" horiz-adv-x="1064" d="M59 995h103l67 -319q120 145 344 145q183 0 301.5 -121t118.5 -301q0 -84 -26.5 -158t-76.5 -131t-129 -90.5t-177 -33.5q-168 0 -262.5 82t-94.5 213q0 77 56 137l86 -62q-39 -42 -39 -98q0 -80 64.5 -130t174.5 -50q145 0 232.5 92.5t87.5 228.5q0 142 -91 234t-249 92 q-197 0 -322 -162h-69q-85 369 -99 432z" />
<glyph unicode="&#xe57;" horiz-adv-x="1386" d="M80 385q0 152 79.5 253.5t211.5 145.5l176 -174l158 178q113 -16 185.5 -96.5t72.5 -212.5v-395h61q73 0 116.5 51t43.5 139v721h104v-710q0 -130 -72 -207.5t-194 -77.5h-164v483q0 77 -35.5 127.5t-105.5 67.5l-168 -189l-178 181q-93 -40 -139 -115t-46 -172 q0 -142 84 -223.5t199 -81.5q56 0 123 18q2 -20 6 -44t6 -42q-68 -24 -153 -24q-155 0 -263 112.5t-108 286.5z" />
<glyph unicode="&#xe58;" horiz-adv-x="1038" d="M94 256v190q0 147 98.5 243.5t258.5 96.5h155q125 0 173 43.5t48 137.5v28h109v-30q0 -133 -78 -209t-217 -76h-180q-130 0 -193 -65.5t-63 -176.5v-178q0 -72 42 -118t134 -46l172 178l199 -186q51 0 85.5 53t34.5 121q0 67 -36.5 113t-104.5 65l37 82q86 -18 143.5 -88 t57.5 -164q0 -118 -72.5 -198t-169.5 -80l-174 164l-152 -164q-137 0 -222 70.5t-85 193.5z" />
<glyph unicode="&#xe59;" horiz-adv-x="1081" d="M80 403q0 177 82.5 287.5t206.5 110.5q76 0 135.5 -36t91.5 -101q17 69 58 106t96 37q47 0 86.5 -26.5t64.5 -67.5q35 194 49 282h94q-26 -126 -75 -381h-78q-45 109 -139 109q-36 0 -66.5 -33t-42.5 -88q64 -184 207 -602h-109l-202 584q-41 116 -166 116 q-88 0 -140.5 -81t-52.5 -216q0 -143 57.5 -234t129.5 -91q47 0 96 22l24 -80q-49 -34 -131 -34q-115 0 -195.5 117t-80.5 300z" />
<glyph unicode="&#xe5b;" horiz-adv-x="1687" d="M301 276v533q0 42 12 65t47 41l336 172q74 39 142 39q65 0 153 -43l236 -116q49 -24 49 -74q0 -59 -68 -92l-303 -154q-36 -19 -49.5 -49t-13.5 -76v-522zM895 27v489q0 32 7.5 48t29.5 28l297 151q27 15 59 15q43 0 70.5 -29t27.5 -82v-260q0 -60 -16 -92t-59 -55z" />
<glyph unicode="&#x2000;" horiz-adv-x="932" />
<glyph unicode="&#x2001;" horiz-adv-x="1864" />
<glyph unicode="&#x2002;" horiz-adv-x="932" />
<glyph unicode="&#x2003;" horiz-adv-x="1864" />
<glyph unicode="&#x2004;" horiz-adv-x="621" />
<glyph unicode="&#x2005;" horiz-adv-x="466" />
<glyph unicode="&#x2006;" horiz-adv-x="310" />
<glyph unicode="&#x2007;" horiz-adv-x="310" />
<glyph unicode="&#x2008;" horiz-adv-x="233" />
<glyph unicode="&#x2009;" horiz-adv-x="372" />
<glyph unicode="&#x200a;" horiz-adv-x="103" />
<glyph unicode="&#x2010;" horiz-adv-x="579" d="M68 418v123h446v-123h-446z" />
<glyph unicode="&#x2011;" horiz-adv-x="579" d="M68 418v123h446v-123h-446z" />
<glyph unicode="&#x2012;" horiz-adv-x="579" d="M68 418v123h446v-123h-446z" />
<glyph unicode="&#x2013;" horiz-adv-x="878" d="M-6 430v96h891v-96h-891z" />
<glyph unicode="&#x2014;" horiz-adv-x="1767" d="M-6 430v96h1780v-96h-1780z" />
<glyph unicode="&#x2018;" horiz-adv-x="483" d="M123 854l135 389h102l-104 -389h-133z" />
<glyph unicode="&#x2019;" horiz-adv-x="483" d="M123 854l104 389h133l-137 -389h-100z" />
<glyph unicode="&#x201a;" horiz-adv-x="483" d="M123 -238l104 388h133l-137 -388h-100z" />
<glyph unicode="&#x201c;" d="M213 854l137 389h101l-105 -389h-133zM526 854l138 389h100l-105 -389h-133z" />
<glyph unicode="&#x201d;" d="M213 854l104 389h134l-138 -389h-100zM526 854l105 389h133l-137 -389h-101z" />
<glyph unicode="&#x201e;" d="M213 -238l104 388h134l-136 -388h-102zM526 -238l105 388h133l-137 -388h-101z" />
<glyph unicode="&#x2020;" d="M121 811v96h311v336h113v-336h311v-96h-311v-811h-113v811h-311z" />
<glyph unicode="&#x2021;" d="M121 334v96h311v381h-311v96h311v336h113v-336h311v-96h-311v-381h311v-96h-311v-334h-113v334h-311z" />
<glyph unicode="&#x2022;" horiz-adv-x="878" d="M129 623q0 127 90.5 218t218.5 91t219 -91t91 -218t-91 -218.5t-219 -91.5q-127 0 -218 91t-91 219z" />
<glyph unicode="&#x2026;" horiz-adv-x="1767" d="M219 0v150h146v-150h-146zM813 0v150h143v-150h-143zM1405 0v150h145v-150h-145z" />
<glyph unicode="&#x202f;" horiz-adv-x="372" />
<glyph unicode="&#x2030;" horiz-adv-x="1767" d="M68 940q0 50 5 91t20 84t40 72.5t68.5 48.5t101.5 19q72 0 121 -27t73 -75.5t33 -99t9 -113.5t-9 -113.5t-33 -99t-73 -75.5t-121 -27q-58 0 -101.5 19t-68.5 48.5t-40 72.5t-20 84t-5 91zM180 940q0 -44 3.5 -77.5t15 -71.5t38 -59t66.5 -21t66.5 21t38 59t15 71.5 t3.5 77.5t-3.5 77.5t-15 71.5t-38 59t-66.5 21t-66.5 -21t-38 -59t-15 -71.5t-3.5 -77.5zM186 -39l736 1321h102l-735 -1321h-103zM670 303q0 50 5 91t20 84t40 72.5t68.5 48.5t101.5 19q72 0 121 -27t73 -75.5t33 -99t9 -113.5t-9 -113.5t-33 -99t-73 -75.5t-121 -27 q-58 0 -101.5 19t-68.5 48.5t-40 72.5t-20 84t-5 91zM782 303q0 -44 3.5 -77.5t15 -71.5t38 -59t66.5 -21t66.5 21t38 59t15 71.5t3.5 77.5t-3.5 77.5t-15 71.5t-38 59t-66.5 21t-66.5 -21t-38 -59t-15 -71.5t-3.5 -77.5zM1229 303q0 50 5 91t20 84t40 72.5t68.5 48.5 t101.5 19q72 0 121 -27t73 -75.5t33 -99t9 -113.5t-9 -113.5t-33 -99t-73 -75.5t-121 -27q-58 0 -101.5 19t-68.5 48.5t-40 72.5t-20 84t-5 91zM1341 303q0 -44 3.5 -77.5t15 -71.5t38 -59t66.5 -21t66.5 21t38 59t15 71.5t3.5 77.5t-3.5 77.5t-15 71.5t-38 59t-66.5 21 t-66.5 -21t-38 -59t-15 -71.5t-3.5 -77.5z" />
<glyph unicode="&#x2039;" horiz-adv-x="483" d="M63 479l250 365h105l-238 -365l238 -364h-105z" />
<glyph unicode="&#x203a;" horiz-adv-x="483" d="M66 115l235 364l-235 365h104l250 -365l-250 -364h-104z" />
<glyph unicode="&#x2044;" horiz-adv-x="284" d="M-276 -39l735 1321h100l-735 -1321h-100z" />
<glyph unicode="&#x205f;" horiz-adv-x="466" />
<glyph unicode="&#x20ac;" d="M18 455l21 86h129q-4 25 -4 77q0 53 4 82h-150l21 86h141q46 219 198 348.5t370 129.5q154 0 253 -45l-22 -111q-86 51 -231 51q-170 0 -286 -100.5t-155 -272.5h606l-18 -86h-604q-4 -27 -4 -77q0 -55 4 -82h571l-18 -86h-537q39 -172 153.5 -270.5t284.5 -98.5 q138 0 234 47l10 -113q-90 -40 -244 -40q-225 0 -374.5 126.5t-192.5 348.5h-160z" />
<glyph unicode="&#x2122;" horiz-adv-x="1748" d="M109 1157v86h577v-86h-233v-651h-113v651h-231zM844 506v737h182l217 -569l217 569h182v-737h-112v641h-4l-246 -641h-76l-243 641h-5v-641h-112z" />
<glyph unicode="&#x2202;" horiz-adv-x="897" d="M53 379q0 162 96.5 271.5t258.5 109.5q80 0 154.5 -36t131.5 -99v80q0 61 -9 121.5t-31 124t-55.5 111.5t-88.5 78.5t-123 30.5q-55 0 -101.5 -21.5t-101.5 -62.5l-75 89q120 108 272 108q100 0 179.5 -39.5t129 -103t81.5 -149t45 -171t13 -176.5q0 -75 -6.5 -144.5 t-22.5 -148t-46.5 -142.5t-74.5 -117.5t-111.5 -83t-151.5 -29.5q-163 0 -263 116.5t-100 282.5zM184 373q0 -72 25 -135.5t80.5 -107.5t130.5 -44q70 0 124 41.5t83.5 106t44 132.5t14.5 132q-51 68 -119 109.5t-145 41.5q-113 0 -175.5 -80t-62.5 -196z" />
<glyph unicode="&#x2206;" horiz-adv-x="1187" d="M16 0l498 1268h148l509 -1268h-1155zM207 129h766l-387 989z" />
<glyph unicode="&#x220f;" horiz-adv-x="1267" d="M115 -381v1780h1036v-1780h-139v1651h-758v-1651h-139z" />
<glyph unicode="&#x2211;" horiz-adv-x="1081" d="M39 -266l573 782l-549 768v115h957v-129h-776l534 -754l-567 -768h831v-129h-1003v115z" />
<glyph unicode="&#x2212;" horiz-adv-x="1054" d="M76 389v123h903v-123h-903z" />
<glyph unicode="&#x221a;" horiz-adv-x="884" d="M-23 281l201 92l268 -563l328 1589h135l-377 -1780h-133l-288 594l-82 -39z" />
<glyph unicode="&#x221e;" horiz-adv-x="1339" d="M68 449q0 118 71 198t189 80q50 0 98 -17t93.5 -51.5t76 -62.5t74.5 -74q5 5 31.5 32t34 33.5t32 30t36 31t34.5 25t39.5 24t39 16t44.5 12.5t45 3q119 0 191.5 -78t72.5 -196q0 -122 -70.5 -201.5t-191.5 -79.5q-49 0 -96 16t-92 48.5t-75.5 59.5t-74.5 71 q-53 -51 -77.5 -72.5t-72.5 -56.5t-93.5 -49.5t-96.5 -14.5q-116 0 -189 77.5t-73 195.5zM184 449q0 -69 40 -111.5t108 -42.5q111 0 262 151q-42 38 -59.5 52.5t-60.5 47t-78.5 46.5t-67.5 14q-66 0 -105 -46t-39 -111zM748 446q45 -45 77.5 -72.5t85 -53t103.5 -25.5 q65 0 103 44t38 110q0 70 -38.5 114.5t-108.5 44.5q-29 0 -57 -9t-60.5 -32.5t-48 -35.5t-53 -47t-41.5 -38z" />
<glyph unicode="&#x222b;" horiz-adv-x="972" d="M168 -287q0 25 20 44.5t45 19.5q20 0 35.5 -11.5t23.5 -25.5t17.5 -25.5t18.5 -11.5q49 0 49 227v961q0 17 -1 62t-1 71q0 59 3.5 105t17.5 99.5t37 88.5t66 58.5t101 23.5q56 0 98.5 -24.5t42.5 -76.5q0 -30 -21.5 -48.5t-53.5 -18.5q-19 0 -34.5 12t-24.5 27t-20 27 t-20 12q-55 0 -55 -168q0 -64 4 -84v-1012q0 -46 -1 -77t-5.5 -79.5t-13 -81.5t-25 -71t-40 -61t-59.5 -38.5t-81 -15.5q-47 0 -85 23.5t-38 68.5z" />
<glyph unicode="&#x2248;" horiz-adv-x="1042" d="M51 147q6 52 21.5 96.5t42 84t69 62t97.5 22.5q52 0 122 -20t127 -43.5t124 -43.5t114 -20q108 0 133 131h90q-14 -111 -69.5 -184.5t-159.5 -73.5q-65 0 -161.5 32t-186 64.5t-138.5 32.5q-54 0 -90 -42.5t-43 -97.5h-92zM53 469q8 107 67 184.5t163 77.5 q65 0 157.5 -31.5t182 -63.5t147.5 -32q56 0 88.5 37.5t44.5 97.5h90q-13 -114 -69.5 -187t-161.5 -73q-67 0 -162 31.5t-183.5 62.5t-137.5 31q-54 0 -91 -40t-45 -95h-90z" />
<glyph unicode="&#x2260;" horiz-adv-x="1042" d="M70 203v129h317l119 225h-436v127h503l138 262l110 -55l-108 -207h260v-127h-326l-119 -225h445v-129h-510l-135 -260l-111 57l105 203h-252z" />
<glyph unicode="&#x2264;" horiz-adv-x="1042" d="M70 -53v127h903v-127h-903zM70 473v133l903 334v-139l-727 -260l727 -258v-138z" />
<glyph unicode="&#x2265;" horiz-adv-x="1042" d="M70 -53v127h903v-127h-903zM70 145v138l727 258l-727 260v139l903 -334v-133z" />
<glyph unicode="&#x25ca;" horiz-adv-x="1042" d="M152 633l305 696h129l305 -696l-305 -694h-129zM287 633l233 -559l236 559l-236 561z" />
<glyph unicode="&#x25fc;" horiz-adv-x="911" d="M0 0v911h911v-911h-911z" />
<glyph unicode="&#xf700;" horiz-adv-x="1044" d="M78 911q154 148 381 148q153 0 268 -72l129 141h139l-192 -204q68 -58 109.5 -166.5t41.5 -225.5q0 -234 -128.5 -383t-325.5 -149h-131l-90 383q-10 47 -32.5 67.5t-62.5 20.5h-39v104h70q59 0 104 -33t58 -89l86 -353h51q133 0 226.5 116.5t93.5 315.5 q0 207 -101 313.5t-274 106.5q-98 0 -185 -36t-147 -95z" />
<glyph unicode="&#xf701;" horiz-adv-x="0" d="M-995 1186v110h649v-110h-649z" />
<glyph unicode="&#xf702;" horiz-adv-x="0" d="M-995 1186v110h546v148h103v-258h-649z" />
<glyph unicode="&#xf703;" horiz-adv-x="0" d="M-995 1186v110h430q-10 20 -10 52q0 60 40.5 102.5t100.5 42.5q61 0 103 -42.5t42 -102.5q0 -67 -44.5 -114.5t-112.5 -47.5h-549zM-494 1348q0 -27 18.5 -45.5t45.5 -18.5q26 0 44.5 19t18.5 45q0 27 -18 45t-45 18q-28 0 -46 -17.5t-18 -45.5z" />
<glyph unicode="&#xf704;" horiz-adv-x="0" d="M-995 1186v110h325v148h103v-148h118v148h103v-258h-649z" />
<glyph unicode="&#xf705;" horiz-adv-x="0" d="M-530 1186v282h104v-282h-104z" />
<glyph unicode="&#xf706;" horiz-adv-x="0" d="M-778 1346v94h121q43 0 71.5 -26t28.5 -62v-43q0 -29 31 -29h336v-94h-363q-37 0 -65.5 24t-28.5 62v43q0 17 -7 24t-24 7h-100z" />
<glyph unicode="&#xf707;" horiz-adv-x="0" d="M-897 1262q0 52 42.5 95.5t109.5 49.5l116 -107l107 109q70 -3 112.5 -43.5t42.5 -97.5q0 -19 -6 -37q129 42 129 174q0 47 -6 74h88q4 -27 4 -64q0 -97 -64.5 -163t-154.5 -66h-80l-4 10q15 24 15 51q0 69 -62 86l-121 -119l-123 111q-53 -22 -53 -80q0 -25 12 -49 l-8 -12h-86q-10 42 -10 78z" />
<glyph unicode="&#xf708;" horiz-adv-x="0" d="M-745 1286v80l149 -6l-4 106h121l-4 -106l149 6v-80l-149 4l4 -104h-121l4 104z" />
<glyph unicode="&#xf709;" horiz-adv-x="0" d="M-707 1186v61q0 70 48.5 116t132.5 46h198v-96h-166q-50 0 -73 -20t-23 -64v-43h-117z" />
<glyph unicode="&#xf70a;" horiz-adv-x="0" d="M-213 1186v282h104v-282h-104z" />
<glyph unicode="&#xf70b;" horiz-adv-x="0" d="M-532 1346v94h120q43 0 72 -26t29 -62v-43q0 -29 30 -29h336v-94h-362q-37 0 -65.5 24t-28.5 62v43q0 17 -7 24t-24 7h-100z" />
<glyph unicode="&#xf70c;" horiz-adv-x="0" d="M-791 1262q0 52 42.5 95.5t109.5 49.5l117 -107l106 109q70 -3 113 -43.5t43 -97.5q0 -19 -6 -37q129 42 129 174q0 47 -6 74h88q4 -27 4 -64q0 -97 -64.5 -163t-154.5 -66h-80l-4 10q14 22 14 51q0 69 -61 86l-121 -119l-123 111q-53 -22 -53 -80q0 -25 12 -49l-8 -12 h-86q-11 46 -11 78z" />
<glyph unicode="&#xf70d;" horiz-adv-x="0" d="M-367 1286v80l150 -6l-4 106h121l-4 -106l149 6v-80l-149 4l4 -104h-121l4 104z" />
<glyph unicode="&#xf70e;" horiz-adv-x="0" d="M-401 1186v57q0 70 48 116t132 46h198v-96h-165q-50 0 -73.5 -20t-23.5 -64v-39h-116z" />
<glyph unicode="&#xf70f;" horiz-adv-x="1691" d="M82 774q41 120 157.5 202.5t276.5 82.5q179 0 298.5 -104.5t119.5 -258.5v-348q0 -122 70 -193t202 -71q133 0 200 64t67 184v702h116v-690q0 -170 -96 -265t-289 -95q-194 0 -289.5 98.5t-95.5 277.5v320q0 131 -82 204.5t-221 73.5q-213 0 -315 -188q8 -9 21.5 -23 t42 -44l47.5 -50t18 -20q-99 -69 -99 -170v-303q0 -27 18 -44.5t52 -17.5h45v-98h-96q-54 0 -94.5 44t-40.5 110v282q0 54 27.5 112.5t72.5 86.5z" />
<glyph unicode="&#xf710;" horiz-adv-x="0" d="M-725 1329v70h117v-64q0 -23 18 -38t47 -15h551v-96h-592q-56 0 -98.5 41t-42.5 102z" />
<glyph unicode="&#xf711;" horiz-adv-x="0" d="M-655 1339q0 75 52.5 128t127.5 53t127.5 -53t52.5 -128t-52.5 -127.5t-127.5 -52.5t-127.5 52.5t-52.5 127.5zM-578 1341q0 -44 30 -74t73 -30t72.5 30t29.5 74q0 43 -29.5 73t-72.5 30t-73 -30t-30 -73z" />
<glyph unicode="&#xf712;" horiz-adv-x="0" d="M-973 1348q0 78 52.5 127t158.5 49h207q117 0 117 90v28h98v-34q0 -71 -48 -119.5t-128 -48.5h-242q-114 0 -114 -86q0 -37 26.5 -59.5t83.5 -22.5q29 0 56 12t42 25t35 34q22 -22 36 -34t39 -23.5t52 -11.5h142v-96h-127q-35 0 -74.5 18.5t-67.5 56.5q-50 -75 -170 -75 q-68 0 -121 48t-53 122z" />
<glyph unicode="&#xf713;" horiz-adv-x="0" d="M-449 1571v203h103v-203h-103z" />
<glyph unicode="&#xf714;" horiz-adv-x="0" d="M-690 1731v94h121q43 0 71.5 -26t28.5 -62v-43q0 -29 31 -29h284v-94h-311q-37 0 -65.5 24t-28.5 62v43q0 17 -7 24t-24 7h-100z" />
<glyph unicode="&#xf715;" horiz-adv-x="0" d="M-725 1647q0 52 42.5 95.5t109.5 49.5l104 -106l88 108q70 -3 113 -43.5t43 -97.5q0 -19 -6 -37q129 42 129 174q0 42 -7 74h89q4 -27 4 -64q0 -97 -65 -163t-155 -66h-79l-4 10q14 22 14 51q0 69 -62 86l-102 -119l-111 111q-53 -22 -53 -80q0 -25 12 -49l-8 -12h-86 q-10 42 -10 78z" />
<glyph unicode="&#xf716;" horiz-adv-x="0" d="M-580 1665v72l138 -4l-4 100h100l-4 -100l137 4v-72l-137 4l4 -98h-100l4 98z" />
<glyph unicode="&#xf717;" horiz-adv-x="0" d="M-575 1421v37q0 70 48 116t132 46h147v-96h-114q-50 0 -73.5 -20t-23.5 -64v-19h-116z" />
<glyph unicode="&#xf718;" horiz-adv-x="0" d="M-332 -528h121q46 0 77.5 -30.5t31.5 -76.5v-289h-97v256q0 25 -12 36t-41 11h-80v93z" />
<glyph unicode="&#xf719;" horiz-adv-x="0" d="M-655 -528h182v-215q0 -59 35 -92t102 -33q139 0 139 133v207h91v-207q0 -96 -61 -151.5t-169 -55.5q-101 0 -159 55.5t-58 143.5v131h-102v84z" />
<glyph unicode="&#xf71a;" horiz-adv-x="0" d="M-258 -618q0 40 27 66t67 26t66 -26t26 -66q0 -38 -26 -64.5t-66 -26.5t-67 26.5t-27 64.5z" />
<glyph unicode="&#xf71b;" horiz-adv-x="1099" d="M68 0v98h38q64 0 64 62v276q0 55 25.5 113t70.5 86l-133 139q40 119 161 202t281 83q181 0 301.5 -105.5t120.5 -263.5v-1100h-172q-99 123 -262 123q-158 0 -274 -98l-27 92q52 48 129 77.5t162 29.5q97 0 183.5 -37.5t144.5 -104.5v1008q0 130 -83 204t-223 74 q-113 0 -194.5 -50.5t-128.5 -137.5q8 -9 21.5 -23t42 -44l47.5 -50t18 -20q-94 -65 -94 -170v-318q0 -62 -35.5 -103.5t-87.5 -41.5h-96z" />
<glyph unicode="&#xf71c;" horiz-adv-x="1099" d="M68 0v98h38q64 0 64 62v276q0 55 25.5 113t70.5 86l-133 139q40 119 161 202t281 83q181 0 301.5 -105.5t120.5 -263.5v-1100h-125l-251 148q-31 -71 -98 -115.5t-134 -44.5q-119 0 -196 47l24 92q87 -41 164 -41q78 0 132.5 55.5t78.5 137.5l289 -172v983q0 130 -83 204 t-223 74q-113 0 -194.5 -50.5t-128.5 -137.5q8 -9 21.5 -23t42 -44l47.5 -50t18 -20q-94 -65 -94 -170v-318q0 -62 -35.5 -103.5t-87.5 -41.5h-96z" />
<glyph unicode="&#xf71d;" horiz-adv-x="1161" d="M100 0v1034h113v-807l-6 -80h6q17 54 20 60l328 575h39l326 -575q3 -6 20 -60h6q-6 49 -6 80v391q0 89 -45 142t-119 53h-37q1 0 -3.5 11.5t-9.5 22.5l-5 11q1 0 55 76t107.5 152.5t52.5 76.5h129l-217 -293q89 -12 147 -84.5t58 -175.5v-610h-123l-356 616l-357 -616 h-123z" />
<glyph unicode="&#xf8ff;" horiz-adv-x="1687" d="M301 276v533q0 42 12 65t47 41l336 172q74 39 142 39q65 0 153 -43l236 -116q49 -24 49 -74q0 -59 -68 -92l-303 -154q-36 -19 -49.5 -49t-13.5 -76v-522zM895 27v489q0 32 7.5 48t29.5 28l297 151q27 15 59 15q43 0 70.5 -29t27.5 -82v-260q0 -60 -16 -92t-59 -55z" />
<glyph horiz-adv-x="399" />
<glyph horiz-adv-x="886" d="M-655 1339q0 75 52.5 128t127.5 53t127.5 -53t52.5 -128t-52.5 -127.5t-127.5 -52.5t-127.5 52.5t-52.5 127.5zM-580 1339q0 -42 31 -72t74 -30t72.5 29.5t29.5 72.5t-30 74t-72 31q-43 0 -74 -31t-31 -74zM49 922q144 137 373 137q162 0 262 -103.5t100 -265.5v-690 h-116v680q0 130 -68.5 202t-193.5 72q-177 0 -314 -120z" />
<glyph horiz-adv-x="0" />
</font>
</defs>
</svg>
