<?xml version="1.0" standalone="no"?>
<!DOCTYPE svg PUBLIC "-//W3C//DTD SVG 1.1//EN" "http://www.w3.org/Graphics/SVG/1.1/DTD/svg11.dtd" >
<svg xmlns="http://www.w3.org/2000/svg">
<metadata></metadata>
<defs>
<font id="sukhumvitregular" horiz-adv-x="991" >
<font-face units-per-em="2048" ascent="1638" descent="-410" />
<missing-glyph horiz-adv-x="589" />
<glyph unicode="&#xe2f;&#xe2f;" horiz-adv-x="1406" d="M82 963v84h170v-70q0 -99 60 -158t161 -59q108 0 182 77.5t74 184.5v25h168v-287q106 1 179 78t73 184v25h168v-1047h-174v780q-34 -71 -100 -111t-146 -46v-623h-174v780q-37 -77 -112 -117t-165 -40q-170 0 -267 93t-97 247z" />
<glyph unicode="&#xe4f;&#x22;" horiz-adv-x="1052" d="M135 410q0 164 116.5 280.5t280.5 116.5t281 -116.5t117 -280.5q0 -166 -117 -283t-281 -117t-280.5 117t-116.5 283zM197 410q0 -140 98 -239t237 -99t237.5 99t98.5 239q0 138 -98.5 236.5t-237.5 98.5t-237 -98.5t-98 -236.5zM301 408q0 96 67.5 163.5t161.5 67.5 q96 0 164 -67.5t68 -161.5q0 -96 -68 -164t-162 -68q-96 0 -163.5 68t-67.5 162zM328 893v354h110v-354h-110zM360 408q0 -70 50 -120t122 -50q69 0 118.5 50t49.5 122q0 69 -50 118.5t-120 49.5q-69 0 -119.5 -50t-50.5 -120zM639 893v354h113v-354h-113z" />
<glyph unicode="&#xe24;&#xe32;" horiz-adv-x="1781" d="M88 770q39 121 171 210t300 89q115 0 210 -43.5t153 -118.5q166 162 387 162q180 0 281.5 -106.5t101.5 -294.5v-1078h-174v1092q0 119 -59 180.5t-167 61.5q-91 0 -171.5 -37.5t-139.5 -98.5q12 -47 12 -92v-1106h-174v1092q0 118 -68.5 184t-189.5 66 q-102 0 -182 -44.5t-119 -117.5l115 -137q-42 -28 -60 -65.5t-18 -96.5v-295q0 -39 37 -39h74v-137h-140q-64 0 -104.5 46t-40.5 116v282q0 55 22.5 109.5t59.5 79.5z" />
<glyph unicode="&#xe26;&#xe32;" horiz-adv-x="1802" d="M55 0v137h64q37 0 37 39v268q0 55 21.5 109.5t58.5 79.5l-117 137q39 122 167.5 210.5t295.5 88.5q114 0 208 -42.5t154 -117.5q167 160 385 160q180 0 281.5 -106.5t101.5 -294.5v-1078h-174v1092q0 119 -58.5 180.5t-166.5 61.5q-174 0 -307 -129q16 -53 16 -105v-1100 h-174v1092q0 117 -72.5 183.5t-193.5 66.5q-100 0 -174.5 -44t-114.5 -118l115 -137q-42 -28 -60 -65.5t-18 -96.5v-319q0 -64 -40.5 -108t-99.5 -44h-135z" />
<glyph unicode="fi" horiz-adv-x="1187" d="M37 774v135h215v84q0 89 13 151.5t45.5 113t93 75.5t151.5 25q25 0 64 -4.5t49 -5.5l-6 -136q-33 11 -80 11q-42 0 -72 -11t-47.5 -29t-28 -47.5t-13.5 -58.5t-3 -69v-99h241v-135h-241v-774h-166v774h-215zM846 1112v188h188v-188h-188zM856 0v909h168v-909h-168z" />
<glyph unicode="fl" horiz-adv-x="1187" d="M37 774v135h215v84q0 89 13 151.5t45.5 113t93 75.5t151.5 25q25 0 64 -4.5t49 -5.5l-6 -136q-33 11 -80 11q-42 0 -72 -11t-47.5 -29t-28 -47.5t-13.5 -58.5t-3 -69v-99h241v-135h-241v-774h-166v774h-215zM856 0v1337h168v-1337h-168z" />
<glyph unicode=" "  horiz-adv-x="589" />
<glyph unicode="&#x09;" horiz-adv-x="589" />
<glyph unicode="&#xa0;" horiz-adv-x="589" />
<glyph unicode="!" horiz-adv-x="692" d="M248 0v199h198v-199h-198zM248 1243h198l-22 -893h-154z" />
<glyph unicode="&#x22;" d="M283 807v436h157v-436h-157zM551 807v436h156v-436h-156z" />
<glyph unicode="#" d="M49 371v135h191l30 231h-170v135h191l51 371h135l-51 -371h211l51 371h135l-51 -371h168v-135h-188l-33 -231h170v-135h-189l-51 -371h-135l51 371h-211l-51 -371h-135l51 371h-170zM375 506h209l32 231h-210z" />
<glyph unicode="$" d="M133 926q0 131 87.5 220.5t219.5 110.5v179h103v-170q131 -3 256 -45l-25 -164q-86 51 -213 51h-18v-387l104 -55q107 -57 158 -129.5t51 -188.5q0 -145 -84 -241.5t-229 -116.5v-178h-103v168h-22q-141 0 -271 51l23 170q93 -66 246 -66h24v434l-61 29 q-56 27 -97.5 55.5t-77 68t-53.5 91t-18 113.5zM322 932q0 -27 9.5 -50t29.5 -43.5t35.5 -33t43.5 -31.5v320q-59 -21 -88.5 -59t-29.5 -103zM543 156q56 17 90.5 68t34.5 112q0 68 -31.5 107t-93.5 73v-360z" />
<glyph unicode="%" horiz-adv-x="1781" d="M197 909q0 61 6.5 110.5t24.5 97t47.5 79t77 51t110.5 19.5t110.5 -19.5t77 -51t47.5 -79t24.5 -97t6.5 -110.5q0 -73 -13 -133.5t-42.5 -112t-83 -81t-127.5 -29.5t-127.5 29.5t-83 81t-42.5 112t-13 133.5zM352 909q0 -25 1 -43.5t3.5 -49t10 -51.5t19 -42.5t31.5 -33 t46 -11.5q22 0 40 9.5t29.5 23t19.5 35.5t12 40.5t6 45t2.5 41t0.5 36.5q0 26 -0.5 43.5t-3.5 48.5t-10.5 52.5t-18.5 43t-31 33t-46 11.5t-46 -11.5t-31.5 -33t-19 -43t-10 -52t-3.5 -48.5t-1 -44zM440 -39l772 1321h127l-770 -1321h-129zM1053 336q0 77 11.5 136.5 t39.5 111.5t82.5 80t132.5 28t132.5 -28t82.5 -80t39.5 -111.5t11.5 -136.5q0 -73 -13 -133.5t-42.5 -112t-83 -81t-127.5 -29.5t-127.5 29.5t-83 81t-42.5 112t-13 133.5zM1208 336q0 -26 1 -44t3.5 -48.5t10 -52t19 -43t31.5 -33t46 -11.5t46 11.5t31.5 33t19 43t10 52 t3.5 48.5t1 44q0 25 -1 43.5t-3.5 49t-10 51.5t-19 42.5t-31.5 33t-46 11.5t-46 -11.5t-31.5 -33t-19 -42.5t-10 -51.5t-3.5 -49t-1 -43.5z" />
<glyph unicode="&#x26;" horiz-adv-x="1286" d="M147 326q0 134 71.5 220t207.5 144q-62 75 -95.5 139.5t-33.5 143.5q0 144 92 218.5t234 74.5q131 0 219 -71.5t88 -211.5q0 -107 -80.5 -192t-192.5 -132l254 -288q35 57 52.5 126t23.5 175h168q-11 -142 -46 -237t-97 -189l217 -246h-221l-103 121q-67 -74 -152 -107.5 t-204 -33.5q-184 0 -293 94.5t-109 251.5zM336 338q0 -99 72.5 -161t173.5 -62q127 0 229 118l-299 351q-43 -29 -68.5 -49t-53.5 -50.5t-41 -66.5t-13 -80zM465 969q0 -95 110 -209q69 31 128 90t59 127q0 153 -148 153q-64 0 -106.5 -42t-42.5 -119z" />
<glyph unicode="'" horiz-adv-x="495" d="M170 807v436h156v-436h-156z" />
<glyph unicode="(" horiz-adv-x="593" d="M117 549q0 110 21.5 215t65.5 207.5t89.5 185.5t114.5 191h161q-61 -107 -103.5 -191.5t-85 -189.5t-64 -210t-21.5 -208q0 -196 73.5 -390.5t200.5 -408.5h-161q-68 105 -114.5 189t-90 185.5t-65 207.5t-21.5 217z" />
<glyph unicode=")" horiz-adv-x="593" d="M25 -250q63 114 102.5 193.5t84 187t66 211.5t21.5 207q0 104 -21.5 209t-64 210t-85 189t-103.5 191h159q67 -101 116 -188.5t91 -188.5t64 -207t22 -215q0 -210 -76 -399t-217 -400h-159z" />
<glyph unicode="*" d="M129 920l49 151l268 -110l-28 282h164l-27 -282l260 110l47 -151l-280 -60l192 -219l-135 -88l-143 246l-146 -246l-133 88l197 219z" />
<glyph unicode="+" horiz-adv-x="1069" d="M84 373v155h373v373h155v-373h373v-155h-373v-373h-155v373h-373z" />
<glyph unicode="," horiz-adv-x="495" d="M35 -238l112 437h201l-151 -437h-162z" />
<glyph unicode="-" horiz-adv-x="593" d="M68 412v135h458v-135h-458z" />
<glyph unicode="." horiz-adv-x="495" d="M147 0v199h201v-199h-201z" />
<glyph unicode="/" horiz-adv-x="495" d="M-45 -20l428 1286h158l-428 -1286h-158z" />
<glyph unicode="0" d="M74 623q0 89 10 172t39 171t74.5 152.5t122.5 106t176 41.5t175.5 -41.5t122 -106t74.5 -152.5t39.5 -171t10.5 -172q0 -90 -10.5 -173t-39.5 -171t-74.5 -152t-122 -105.5t-175.5 -41.5t-176 41.5t-122.5 105.5t-74.5 152t-39 171t-10 173zM262 623q0 -48 2.5 -92.5 t10 -106t24 -110.5t41 -94t65 -70t91.5 -25t91 25t64.5 70t41 94t24 110.5t10 106t2.5 92.5q0 45 -3 91.5t-11.5 106t-25.5 109.5t-41.5 94t-63.5 69t-88 25q-50 0 -89 -25t-63.5 -69t-41.5 -94t-25.5 -110t-11.5 -105.5t-3 -91.5z" />
<glyph unicode="1" d="M195 993l305 250h157v-1243h-178v1038l-190 -164z" />
<glyph unicode="2" d="M90 0v190q155 140 225 205q51 48 72 68.5t68 68.5t69 75.5t55.5 73t49.5 80.5t28.5 78t12.5 83q0 85 -68.5 140.5t-169.5 55.5q-139 0 -287 -80l-16 154q164 74 326 74q175 0 289 -94t114 -261q0 -52 -18 -109t-44 -106.5t-71.5 -108.5t-82.5 -101t-96 -99.5t-93.5 -88.5 t-93.5 -83t-78 -70h596v-145h-787z" />
<glyph unicode="3" d="M90 27l12 166q130 -68 273 -68q53 0 104 11t97 34.5t74 66.5t28 99q0 237 -311 237h-109v146h100q52 0 102.5 10.5t98.5 33t77.5 64.5t29.5 97q0 99 -68.5 146.5t-175.5 47.5q-146 0 -277 -67l-10 159q152 56 311 56q84 0 156.5 -20t130 -60t90.5 -107t33 -153 q0 -111 -77.5 -186t-190.5 -97v-4q130 -26 204 -102t74 -205q0 -352 -489 -352q-137 0 -287 47z" />
<glyph unicode="4" d="M35 283v147l502 813h254v-813h157v-147h-157v-283h-179v283h-577zM221 430h391v668z" />
<glyph unicode="5" d="M143 20l7 166q113 -61 258 -61q119 0 204.5 66.5t85.5 179.5q0 127 -85 196.5t-216 69.5q-124 0 -239 -47l10 653h684v-145h-516l-12 -334q63 18 161 18q166 0 284 -110.5t118 -274.5q0 -131 -66 -227.5t-172 -143t-237 -46.5q-165 0 -269 40z" />
<glyph unicode="6" d="M92 575q0 107 14.5 202t50.5 186.5t91.5 157t144.5 105.5t203 40q61 0 141 -13t117 -26l-25 -160q-96 51 -221 51q-86 0 -153 -36.5t-108 -100t-63 -143t-24 -172.5l4 2q111 114 273 114q174 0 274 -110.5t100 -280.5q0 -189 -113 -300t-286 -111q-420 0 -420 595z M281 387q0 -99 59 -180.5t160 -81.5q106 0 163.5 76.5t57.5 185.5q0 97 -54.5 173.5t-152.5 76.5q-108 0 -170.5 -72t-62.5 -178z" />
<glyph unicode="7" d="M88 1098v145h786v-145l-458 -1098h-197l473 1098h-604z" />
<glyph unicode="8" d="M68 326q0 119 72.5 202.5t191.5 124.5v4q-66 22 -113.5 57.5t-73 78t-36.5 85.5t-11 89q0 124 110 211.5t292 87.5q176 0 280.5 -85t104.5 -196q0 -106 -50.5 -180t-172.5 -139q119 -44 190.5 -128t71.5 -202q0 -92 -34.5 -161.5t-95 -111.5t-136.5 -62.5t-166 -20.5 q-80 0 -154.5 22.5t-135.5 64t-97.5 109t-36.5 150.5zM256 336q0 -96 76 -153.5t176 -57.5q95 0 159.5 52t65.5 145q0 43 -11.5 77.5t-27 55.5t-46.5 42t-53 31.5t-65.5 29.5t-66.5 30q-19 -14 -58.5 -38.5t-59 -40t-44 -41t-35 -58t-10.5 -74.5zM276 942q0 -60 60 -109.5 t196 -115.5q104 81 134 128.5t30 117.5q0 55 -35 91.5t-80 50t-94 13.5q-45 0 -91.5 -18t-83 -60t-36.5 -98z" />
<glyph unicode="9" d="M80 854q0 189 112.5 300.5t286.5 111.5q418 0 418 -598q0 -107 -14 -201t-50 -185.5t-91.5 -156.5t-145 -105t-203.5 -40q-63 0 -143.5 11.5t-112.5 26.5l25 158q96 -51 221 -51q84 0 150.5 36.5t108.5 100t64.5 144t24.5 172.5l-4 -3q-114 -114 -272 -114 q-175 0 -275 111t-100 282zM268 856q0 -96 56 -172t153 -76q109 0 170.5 70.5t61.5 177.5q0 63 -23.5 121t-75 99.5t-121.5 41.5q-108 0 -164.5 -75.5t-56.5 -186.5z" />
<glyph unicode=":" horiz-adv-x="495" d="M147 0v199h201v-199h-201zM147 709v200h201v-200h-201z" />
<glyph unicode=";" horiz-adv-x="495" d="M35 -238l112 437h201l-151 -437h-162zM147 709v200h201v-200h-201z" />
<glyph unicode="&#x3c;" horiz-adv-x="1069" d="M82 383v135l905 397v-155l-702 -309l702 -308v-157z" />
<glyph unicode="=" horiz-adv-x="1069" d="M84 184v158h901v-158h-901zM84 559v158h901v-158h-901z" />
<glyph unicode="&#x3e;" horiz-adv-x="1069" d="M82 -14v157l702 308l-702 309v155l905 -397v-135z" />
<glyph unicode="?" horiz-adv-x="890" d="M131 1206q145 60 297 60q100 0 185.5 -35t142.5 -111t57 -180q0 -64 -26.5 -126t-59 -102.5t-82.5 -100.5t-76 -99q-39 -57 -39 -131v-31h-168v37q0 82 23.5 135.5t87.5 128.5q3 3 28.5 32t31.5 37t26.5 34t27.5 41t18.5 39t15.5 47t4 47q0 88 -62.5 134t-154.5 46 q-166 0 -265 -72zM348 0v199h199v-199h-199z" />
<glyph unicode="@" horiz-adv-x="1425" d="M90 623q0 189 88.5 337t236.5 227t326 79q157 0 292.5 -66t219.5 -189t84 -276q0 -96 -31 -180.5t-79 -140.5t-106.5 -96.5t-111.5 -59t-96 -18.5q-42 0 -70 26t-32 74h-4q-40 -42 -92 -71t-103 -29q-110 0 -186 83.5t-76 202.5q0 113 45.5 214t135 167t202.5 66 q130 0 203 -117l27 92h133l-119 -452q-14 -47 -14 -76q1 -15 3 -23t8.5 -14t18.5 -6q79 0 149 100.5t70 231.5q0 135 -65 234.5t-171 148.5t-237 49q-147 0 -263 -70t-178 -189t-62 -264q0 -164 68 -282t184.5 -176t269.5 -58q112 0 215 42.5t172 117.5h135 q-88 -133 -228 -207.5t-302 -74.5q-139 0 -259 43t-209.5 123.5t-140.5 203t-51 273.5zM506 549q0 -73 39 -117.5t106 -44.5q95 0 162.5 94.5t67.5 196.5q0 63 -40.5 106t-97.5 43q-67 0 -123 -44.5t-85 -108t-29 -125.5z" />
<glyph unicode="A" horiz-adv-x="1286" d="M20 0l533 1243h186l527 -1243h-195l-127 313h-608l-127 -313h-189zM391 459h496l-248 616z" />
<glyph unicode="B" horiz-adv-x="1089" d="M147 0v1243h338q437 0 437 -313q0 -122 -66 -192t-190 -103v-4q129 -12 207.5 -91.5t78.5 -207.5q0 -78 -25 -137t-67 -95.5t-104.5 -59.5t-128.5 -31.5t-148 -8.5h-332zM326 145h133q53 0 95 5t82.5 18.5t67.5 35.5t43.5 58.5t16.5 85.5q0 55 -19.5 95.5t-49 64t-74 37 t-86 18t-93.5 4.5h-116v-422zM326 713h98q60 0 100.5 3t85.5 14.5t71.5 32t44 58t17.5 90.5q0 52 -21 90.5t-56 58.5t-72.5 29t-79.5 9h-188v-385z" />
<glyph unicode="C" horiz-adv-x="1089" d="M94 627q0 189 85.5 335.5t234.5 225t338 78.5q155 0 280 -54l-14 -174q-119 70 -258 70q-213 0 -345 -136.5t-132 -348.5q0 -107 37.5 -199.5t101 -155t149.5 -98t181 -35.5q71 0 148.5 17t121.5 45l12 -174q-106 -43 -284 -43q-296 0 -476 176t-180 471z" />
<glyph unicode="D" horiz-adv-x="1286" d="M147 0v1243h367q139 0 260 -42t211 -119t141.5 -193t51.5 -256q0 -309 -175.5 -471t-488.5 -162h-367zM326 158h188q232 0 353.5 115.5t121.5 351.5q0 212 -128.5 337t-325.5 125h-209v-929z" />
<glyph unicode="E" d="M168 0v1243h696v-156h-518v-364h471v-156h-471v-409h518v-158h-696z" />
<glyph unicode="F" horiz-adv-x="890" d="M147 0v1243h662v-156h-483v-364h462v-156h-462v-567h-179z" />
<glyph unicode="G" horiz-adv-x="1286" d="M94 627q0 189 85.5 335.5t234.5 225t338 78.5q53 0 95.5 -3t84.5 -11.5t60.5 -13t65.5 -19t58 -17.5l-12 -180q-71 45 -148.5 65.5t-195.5 20.5q-212 0 -344.5 -138t-132.5 -347q0 -107 37.5 -199.5t101 -155t149.5 -98t181 -35.5q35 0 62.5 1t49.5 4.5t32 5t31 6.5t25 6 v377h-262v145h440v-645q-158 -55 -380 -55q-296 0 -476 176t-180 471z" />
<glyph unicode="H" horiz-adv-x="1286" d="M168 0v1243h178v-520h594v520h178v-1243h-178v567h-594v-567h-178z" />
<glyph unicode="I" horiz-adv-x="495" d="M158 0v1243h178v-1243h-178z" />
<glyph unicode="J" horiz-adv-x="692" d="M37 0v154q56 -19 113 -19q116 0 159 60.5t43 181.5v866h178v-921q0 -72 -17 -130t-55 -107.5t-108 -77t-168 -27.5q-92 0 -145 20z" />
<glyph unicode="K" horiz-adv-x="1187" d="M168 0v1243h178v-547l531 547h237l-586 -588l631 -655h-260l-553 610v-610h-178z" />
<glyph unicode="L" horiz-adv-x="890" d="M158 0v1243h178v-1085h520v-158h-698z" />
<glyph unicode="M" horiz-adv-x="1681" d="M160 0v1243h295l389 -1032l383 1032h295v-1243h-179v1075h-4l-411 -1075h-174l-412 1075h-4v-1075h-178z" />
<glyph unicode="N" horiz-adv-x="1286" d="M158 0v1243h241l549 -1001h4v1001h178v-1243h-229l-563 1022h-2v-1022h-178z" />
<glyph unicode="O" horiz-adv-x="1386" d="M94 623q0 184 70 329t207 229.5t321 84.5q185 0 322.5 -84.5t207.5 -229t70 -329.5q0 -291 -159 -467t-441 -176q-186 0 -322.5 81.5t-206 226t-69.5 335.5zM283 623q0 -76 15 -146.5t47.5 -133t80 -108.5t116 -73t150.5 -27q83 0 152 27t116.5 73t80.5 108.5t48 133 t15 146.5q0 97 -26.5 183.5t-76.5 154t-129.5 107.5t-179.5 40q-99 0 -178 -40t-129 -107.5t-76 -154t-26 -183.5z" />
<glyph unicode="P" d="M147 0v1243h326q101 0 182 -19t147 -60.5t102 -116t36 -177.5q0 -99 -36.5 -173t-100 -116.5t-139.5 -62.5t-164 -20h-174v-498h-179zM326 653h176q45 0 87 12t80 36.5t60.5 68.5t22.5 102q0 56 -27 99.5t-70 67.5t-88.5 36t-89.5 12h-151v-434z" />
<glyph unicode="Q" horiz-adv-x="1386" d="M94 623q0 184 70 329t207 229.5t321 84.5q185 0 322.5 -84.5t207.5 -229t70 -329.5q0 -212 -87.5 -366.5t-248.5 -223.5l289 -262h-221l-231 215q-33 -6 -101 -6q-186 0 -322.5 81.5t-206 226t-69.5 335.5zM283 623q0 -76 15 -146.5t47.5 -133t80 -108.5t116 -73 t150.5 -27q83 0 152 27t116.5 73t80.5 108.5t48 133t15 146.5q0 97 -26.5 183.5t-76.5 154t-129.5 107.5t-179.5 40q-99 0 -178 -40t-129 -107.5t-76 -154t-26 -183.5z" />
<glyph unicode="R" horiz-adv-x="1089" d="M147 0v1243h306q83 0 145.5 -6t129.5 -27t110 -56.5t70.5 -98t27.5 -148.5q0 -113 -72.5 -188.5t-185.5 -93.5v-4q42 -17 67.5 -43t55.5 -82l233 -496h-203l-190 432q-16 36 -33.5 59t-33 35.5t-42 18.5t-44.5 7t-56 1h-106v-553h-179zM326 709h151q128 0 199.5 51.5 t71.5 142.5q0 87 -64 135.5t-186 48.5h-172v-378z" />
<glyph unicode="S" horiz-adv-x="890" d="M84 926q0 159 112.5 249.5t286.5 90.5q143 0 265 -45l-25 -164q-74 29 -121 40t-113 11q-40 0 -76 -8t-69 -26t-52.5 -52t-19.5 -80q0 -48 29.5 -86t76.5 -65t104 -53.5t114.5 -59.5t104.5 -74t76.5 -106.5t29.5 -147.5q0 -97 -35.5 -170t-99 -116t-143.5 -63.5 t-177 -20.5q-99 0 -254 51l19 166q50 -24 123 -43t135 -19q55 0 108 19.5t94 67.5t41 116q0 56 -29.5 99.5t-76.5 72.5t-104 55t-114 56.5t-104 68t-76.5 98t-29.5 138.5z" />
<glyph unicode="T" d="M20 1087v156h951v-156h-387v-1087h-178v1087h-386z" />
<glyph unicode="U" horiz-adv-x="1286" d="M160 514v729h178v-704q0 -404 305 -404t305 404v704h178v-729q0 -261 -125 -397.5t-358 -136.5t-358 136.5t-125 397.5z" />
<glyph unicode="V" horiz-adv-x="1187" d="M10 1243h201l383 -1085h2l395 1085h187l-476 -1243h-223z" />
<glyph unicode="W" horiz-adv-x="1781" d="M4 1243h195l299 -1065h2l266 1065h254l268 -1065h4l297 1065h189l-383 -1243h-230l-270 1087h-4l-273 -1087h-239z" />
<glyph unicode="X" horiz-adv-x="1187" d="M14 0l459 647l-418 596h213l332 -477l330 477h203l-418 -592l459 -651h-224l-368 528l-355 -528h-213z" />
<glyph unicode="Y" horiz-adv-x="1187" d="M20 1243h207l371 -557l363 557h208l-485 -723v-520h-178v520z" />
<glyph unicode="Z" d="M57 0v160l645 927h-624v156h829v-160l-643 -925h654v-158h-861z" />
<glyph unicode="[" horiz-adv-x="593" d="M170 -250v1598h336v-125h-180v-1348h180v-125h-336z" />
<glyph unicode="\" horiz-adv-x="495" d="M-45 1266h158l428 -1286h-158z" />
<glyph unicode="]" horiz-adv-x="593" d="M88 -125h180v1348h-180v125h336v-1598h-336v125z" />
<glyph unicode="^" horiz-adv-x="1069" d="M106 524l355 719h147l355 -719h-160l-268 555l-267 -555h-162z" />
<glyph unicode="_" horiz-adv-x="890" d="M0 -133h891v-90h-891v90z" />
<glyph unicode="`" horiz-adv-x="495" d="M12 1292h195l158 -258h-119z" />
<glyph unicode="a" d="M82 262q0 80 41 141t106.5 93.5t135 48.5t139.5 16h90q22 0 88 -4q0 122 -51 180t-172 58q-72 0 -142.5 -25t-121.5 -68l-11 142q142 86 301 86q192 0 278.5 -92.5t86.5 -282.5v-377q0 -97 6 -178h-156v117h-4q-37 -54 -107.5 -95.5t-172.5 -41.5q-156 0 -245 68t-89 214 zM260 262q0 -67 52.5 -107t117.5 -40q120 0 186 66.5t66 170.5v80q-18 0 -54 2t-53 2q-28 0 -55 -2t-66 -7.5t-71 -18t-61 -30.5t-45.5 -48t-16.5 -68z" />
<glyph unicode="b" horiz-adv-x="1089" d="M143 0v1337h166v-553h4q91 146 301 146q126 0 217.5 -65t134 -167t42.5 -227q0 -98 -23.5 -184.5t-69.5 -156t-123 -110t-176 -40.5q-112 0 -194 44.5t-115 104.5h-4v-129h-160zM309 453q0 -60 16 -117.5t47 -108t84.5 -81.5t121.5 -31q65 0 115.5 33t79 85.5t42.5 110 t14 115.5q0 63 -14 120.5t-42 107t-78 79t-115 29.5q-87 0 -150 -51t-92 -127t-29 -164z" />
<glyph unicode="c" horiz-adv-x="790" d="M68 455q0 209 127.5 342t334.5 133q49 0 107.5 -10.5t95.5 -24.5l-14 -139q-98 39 -180 39q-133 0 -213 -101.5t-80 -238.5q0 -51 10.5 -98.5t34.5 -92t58.5 -77.5t86 -52.5t113.5 -19.5q101 0 180 51l12 -150q-74 -36 -211 -36q-133 0 -239.5 64t-164.5 172.5t-58 238.5 z" />
<glyph unicode="d" horiz-adv-x="1089" d="M82 471q0 93 24.5 175t72 146t123.5 101t171 37q210 0 301 -146h4v553h168v-1337h-160v129h-4q-37 -61 -117.5 -105t-191.5 -44q-100 0 -177 41t-122.5 111t-68.5 156t-23 183zM260 459q0 -57 15 -115.5t44 -110.5t79.5 -85t113.5 -33q67 0 120 31t84 81.5t46.5 108 t15.5 117.5q0 88 -28.5 164t-91 127t-148.5 51q-65 0 -114.5 -29t-78.5 -78t-43 -107t-14 -122z" />
<glyph unicode="e" d="M82 471q0 202 117.5 330.5t308.5 128.5q401 0 401 -512h-649q0 -132 88.5 -217.5t210.5 -85.5q78 0 158.5 29.5t122.5 60.5v-168q-5 -2 -39.5 -14t-50 -16.5t-49 -12.5t-69.5 -11t-79 -3q-235 0 -353 130.5t-118 360.5zM260 541h471q0 109 -61.5 181.5t-165.5 72.5 q-60 0 -106 -22.5t-73.5 -61t-42.5 -80t-22 -90.5z" />
<glyph unicode="f" horiz-adv-x="692" d="M37 774v135h215v84q0 89 13 151.5t45.5 113t93 75.5t151.5 25q25 0 64 -4.5t49 -5.5l-6 -136q-33 11 -80 11q-42 0 -72 -11t-47.5 -29t-28 -47.5t-13.5 -58.5t-3 -69v-99h241v-135h-241v-774h-166v774h-215z" />
<glyph unicode="g" horiz-adv-x="1089" d="M82 446q0 71 15.5 140t49 131t80 109.5t114 75.5t146.5 28q118 0 189.5 -39.5t111.5 -116.5h3v135h155v-870q0 -434 -469 -434q-142 0 -325 61l18 156q109 -46 174.5 -64t153.5 -18q132 0 206 83.5t74 227.5v90h-4q-52 -70 -132.5 -105.5t-170.5 -35.5q-95 0 -170.5 36.5 t-122.5 99.5t-71.5 142t-24.5 168zM260 457q0 -134 69.5 -228t184.5 -94t189.5 89.5t74.5 219.5q0 148 -69 249.5t-195 101.5q-81 0 -140.5 -53t-86.5 -128t-27 -157z" />
<glyph unicode="h" horiz-adv-x="1089" d="M143 0v1337h166v-559h4q98 152 293 152q173 0 256.5 -100.5t83.5 -288.5v-541h-168v471q0 165 -42.5 241.5t-149.5 82.5q-138 0 -207.5 -101t-69.5 -274v-420h-166z" />
<glyph unicode="i" horiz-adv-x="495" d="M154 1112v188h188v-188h-188zM164 0v909h168v-909h-168z" />
<glyph unicode="j" horiz-adv-x="495" d="M-29 -389l6 145q23 -6 68 -6q56 0 87.5 52t31.5 141v966h168v-942q0 -37 -1 -62t-6 -66t-14.5 -70t-28.5 -62t-45.5 -53.5t-67.5 -34.5t-93 -14q-30 0 -105 6zM154 1112v188h188v-188h-188z" />
<glyph unicode="k" d="M143 0v1337h166v-796l367 368h227l-422 -403l475 -506h-239l-408 467v-467h-166z" />
<glyph unicode="l" horiz-adv-x="495" d="M164 0v1337h168v-1337h-168z" />
<glyph unicode="m" horiz-adv-x="1583" d="M141 0v909h156v-133h4q50 80 118.5 117t170.5 37q84 0 154.5 -44t103.5 -132q27 61 81.5 103t105 57.5t95.5 15.5q111 0 183 -46t102.5 -121.5t30.5 -180.5v-582h-168v541q0 38 -4 71t-15 67.5t-28.5 59.5t-47 40.5t-67.5 15.5q-62 0 -109.5 -28t-75 -76.5t-41 -107 t-13.5 -124.5v-459h-168v541q0 254 -162 254q-82 0 -137.5 -50t-78 -123t-22.5 -163v-459h-168z" />
<glyph unicode="n" horiz-adv-x="1089" d="M143 0v909h162v-145h4q36 78 117 122t180 44q173 0 256.5 -100.5t83.5 -288.5v-541h-168v471q0 165 -42.5 241.5t-149.5 82.5q-138 0 -207.5 -101t-69.5 -274v-420h-166z" />
<glyph unicode="o" horiz-adv-x="1089" d="M82 455q0 209 128 342t335 133q206 0 334.5 -133.5t128.5 -341.5q0 -130 -58.5 -238.5t-165 -172.5t-239.5 -64t-239.5 64t-165 172.5t-58.5 238.5zM260 455q0 -86 29 -161t95.5 -127t160.5 -52q93 0 159.5 52t95.5 127t29 161q0 88 -33 164.5t-99 126t-152 49.5 q-128 0 -206.5 -102t-78.5 -238z" />
<glyph unicode="p" horiz-adv-x="1089" d="M143 -375v1284h160v-129h4q34 58 117 104t190 46q126 0 217.5 -65t134 -167t42.5 -227q0 -98 -23.5 -184.5t-69.5 -156t-123 -110t-176 -40.5q-215 0 -303 145h-4v-500h-166zM309 453q0 -60 16 -117.5t47 -108t84.5 -81.5t121.5 -31q65 0 115.5 33t79 85.5t42.5 110 t14 115.5q0 63 -14 120.5t-42 107t-78 79t-115 29.5q-87 0 -150 -51t-92 -127t-29 -164z" />
<glyph unicode="q" horiz-adv-x="1089" d="M82 471q0 93 24.5 175t72 146t123.5 101t171 37q111 0 191 -45.5t118 -106.5h4v131h160v-1284h-168v494h-4q-38 -63 -120 -101t-181 -38q-100 0 -177 41t-122.5 111t-68.5 156t-23 183zM260 459q0 -57 15 -115.5t44 -110.5t79.5 -85t113.5 -33q67 0 120 31t84 81.5 t46.5 108t15.5 117.5q0 88 -28.5 164t-91 127t-148.5 51q-65 0 -114.5 -29t-78.5 -78t-43 -107t-14 -122z" />
<glyph unicode="r" horiz-adv-x="692" d="M143 0v909h156v-141h4q32 72 98 117t140 45q57 0 110 -12v-150q-53 16 -94 16q-111 0 -179.5 -100.5t-68.5 -269.5v-414h-166z" />
<glyph unicode="s" horiz-adv-x="692" d="M61 651q0 137 89 208t231 71q81 0 209 -35l-15 -147q-25 19 -84 33t-92 14q-68 0 -113.5 -28.5t-45.5 -82.5q0 -37 21.5 -66t56.5 -48.5t76.5 -37.5t83.5 -40.5t77 -50.5t56.5 -74t21.5 -105q0 -94 -46.5 -159.5t-116.5 -94t-155 -28.5q-158 0 -249 49l10 149 q47 -31 105.5 -47t101.5 -16q68 0 120 31t52 98q0 34 -21.5 61.5t-56.5 48t-77 40t-84 42.5t-77 50.5t-56.5 70t-21.5 94.5z" />
<glyph unicode="t" horiz-adv-x="692" d="M12 774v135h205v209l168 53v-262h240v-135h-240v-498q0 -76 40.5 -118.5t100.5 -42.5q66 0 113 30v-141q-67 -24 -141 -24q-135 0 -208 64.5t-73 197.5v532h-205z" />
<glyph unicode="u" horiz-adv-x="1089" d="M143 369v540h166v-471q0 -165 43 -241t150 -82q139 0 207.5 100t68.5 272v422h168v-909h-162v143h-4q-36 -76 -117 -119.5t-180 -43.5q-340 0 -340 389z" />
<glyph unicode="v" horiz-adv-x="890" d="M20 909h183l246 -741h4l252 741h165l-325 -909h-199z" />
<glyph unicode="w" horiz-adv-x="1484" d="M20 909h185l209 -751h4l231 751h197l229 -751h2l221 751h164l-291 -909h-194l-236 762h-4l-229 -762h-195z" />
<glyph unicode="x" horiz-adv-x="890" d="M18 0l328 475l-297 434h209l199 -325l200 325h187l-291 -434l319 -475h-206l-224 356l-225 -356h-199z" />
<glyph unicode="y" horiz-adv-x="890" d="M12 909h185l243 -751h4l248 751h170l-342 -950q-14 -39 -21 -57t-22 -54.5t-25.5 -55.5t-28.5 -49t-34 -46t-40 -36.5t-48.5 -30.5t-56 -17.5t-66.5 -7.5q-68 0 -115 12l13 137q31 -14 78 -14q42 0 78 21.5t57 52t36 64t21 56.5t6 31q-2 19 -30 96z" />
<glyph unicode="z" horiz-adv-x="890" d="M76 0v145l524 629h-498v135h693v-147l-525 -627h545v-135h-739z" />
<glyph unicode="{" horiz-adv-x="593" d="M66 487v123q58 0 105.5 49.5t47.5 128.5v334q0 102 64.5 164t136.5 62h139v-125h-94q-88 0 -88 -136v-323q0 -45 -13.5 -82t-31.5 -59t-43 -38.5t-42 -23t-34 -10.5v-4q21 -3 44.5 -13.5t52.5 -33t48 -67.5t19 -105v-318q0 -135 88 -135h94v-125h-139q-72 0 -136.5 61.5 t-64.5 163.5v324q0 85 -47 136.5t-106 51.5z" />
<glyph unicode="|" horiz-adv-x="395" d="M119 -446v1783h157v-1783h-157z" />
<glyph unicode="}" horiz-adv-x="593" d="M35 -125h94q88 0 88 135v324q0 55 18 97t47 65t53 34.5t46 16.5v4q-17 2 -35.5 8t-42.5 22t-42 39t-31 62t-13 88v317q0 136 -88 136h-94v125h137q74 0 138.5 -62t64.5 -164v-323q0 -87 47 -138t106 -51v-123q-58 0 -105.5 -49.5t-47.5 -128.5v-334q0 -102 -64.5 -163.5 t-138.5 -61.5h-137v125z" />
<glyph unicode="~" horiz-adv-x="1069" d="M123 432q74 152 223 152q42 0 99 -19t103 -41.5t96.5 -41.5t80.5 -19q26 0 48 10t44 34t33 39t33 48l63 -125q-74 -152 -223 -152q-53 0 -128.5 30.5t-144.5 60.5t-106 30q-15 0 -29 -3.5t-27.5 -12.5t-22.5 -15.5t-22.5 -23t-18.5 -22.5t-20 -27t-18 -25z" />
<glyph horiz-adv-x="1024" />
<glyph unicode="&#xa1;" horiz-adv-x="692" d="M248 -336l22 895h154l22 -895h-198zM248 709v200h198v-200h-198z" />
<glyph unicode="&#xa2;" d="M158 455q0 209 128.5 342t336.5 133h10q8 0 14 -2l60 202h100l-62 -212q62 -15 80 -23l-14 -139q-53 21 -104 30l-187 -651q66 -20 119 -20q101 0 180 51l12 -150q-74 -36 -208 -36q-81 0 -142 20l-69 -238h-103l82 279q-110 61 -171.5 170.5t-61.5 243.5zM336 455 q0 -73 24.5 -142t73.5 -118l174 598q-84 -5 -147 -55.5t-94 -124.5t-31 -158z" />
<glyph unicode="&#xa3;" d="M104 0v158h164v463h-141v102h141v100q0 199 112 321t318 122q104 0 211 -35l-14 -166q-92 43 -178 43q-137 0 -204 -77t-67 -220v-88h287v-102h-287v-463h439v-158h-781z" />
<glyph unicode="&#xa4;" d="M43 260l100 102q-90 104 -90 261q0 165 90 262l-100 96l90 94l98 -98q50 41 121 63.5t144 22.5q153 0 266 -86l96 98l90 -94l-96 -96q42 -46 64 -116t22 -146q0 -158 -86 -261l96 -102l-90 -90l-96 100q-104 -90 -266 -90q-161 0 -265 90l-98 -100zM211 623 q0 -124 83 -210.5t202 -86.5t201.5 89t82.5 208q0 120 -82 207.5t-202 87.5q-119 0 -202 -87t-83 -208z" />
<glyph unicode="&#xa5;" d="M10 1243h199l291 -557l282 557h199l-324 -592h181v-102h-238l-14 -29v-129h252v-102h-252v-289h-178v289h-250v102h250v129l-15 29h-235v102h178z" />
<glyph unicode="&#xa6;" horiz-adv-x="395" d="M119 -311v622h157v-622h-157zM119 580v622h157v-622h-157z" />
<glyph unicode="&#xa7;" d="M150 543q0 77 32 129.5t99 91.5q-123 70 -123 213q0 71 33.5 128t88.5 91t119 52t131 18q124 0 258 -35l-16 -162q-120 49 -217 49q-38 0 -73.5 -5.5t-73.5 -18.5t-61 -41.5t-23 -69.5q0 -38 23 -67.5t60.5 -48t86 -37t98.5 -34t98.5 -40t86 -54t60.5 -76.5t23 -106 q0 -74 -30 -122t-97 -103q54 -32 84.5 -86t30.5 -117q0 -65 -25 -119t-66 -89.5t-94.5 -59.5t-108 -34.5t-108.5 -10.5q-159 0 -288 45l16 164q120 -64 295 -64q84 0 147.5 42.5t63.5 121.5q0 37 -29 65.5t-76 47.5t-103.5 37.5t-113 43t-103.5 56.5t-76 84.5t-29 120.5z M307 578q0 -40 24.5 -73t67 -56t83 -39t89 -32.5t68.5 -25.5q23 26 34 41.5t21.5 41t10.5 52.5q0 50 -40.5 89.5t-89.5 59t-113 43t-89 38.5q-66 -54 -66 -139z" />
<glyph unicode="&#xa8;" horiz-adv-x="495" d="M18 1049v178h166v-178h-166zM309 1049v178h168v-178h-168z" />
<glyph unicode="&#xa9;" horiz-adv-x="1425" d="M70 623q0 130 51.5 249t137.5 205t205 137.5t249 51.5t249 -51.5t205 -137.5t137.5 -205t51.5 -249q0 -176 -87 -324t-234.5 -233.5t-321.5 -85.5t-321.5 85.5t-234.5 233.5t-87 324zM225 623q0 -223 142.5 -372t345.5 -149t345 149t142 372q0 146 -65.5 265.5t-177 186 t-244.5 66.5t-244.5 -66.5t-177.5 -186t-66 -265.5zM362 623q0 171 97 279t264 108q122 0 209 -70.5t104 -196.5h-129q-13 66 -62.5 104t-119.5 38q-110 0 -167.5 -71.5t-57.5 -188.5q0 -118 62 -194.5t167 -76.5q74 0 121 40.5t57 113.5h129q-20 -131 -104.5 -205 t-202.5 -74q-163 0 -265 112.5t-102 281.5z" />
<glyph unicode="&#xaa;" horiz-adv-x="643" d="M41 862q0 54 31 93t80.5 57.5t95.5 26.5t92 8h57q7 0 52 -5q0 66 -37 92.5t-103 26.5q-110 0 -192 -57l-4 110q101 52 209 52q66 0 113 -10t85 -34t57 -70t19 -114v-227q0 -27 1.5 -50.5t2.5 -35.5t0 -18h-149v67h-5q-51 -82 -174 -82q-37 0 -74 8t-74 25.5t-60 53 t-23 83.5zM186 856q0 -29 32.5 -45t74.5 -16q156 0 156 106v49q-6 0 -29 1t-43 1q-191 0 -191 -96z" />
<glyph unicode="&#xab;" d="M90 479l256 361h156l-232 -361l232 -360h-156zM451 479l256 361h155l-231 -361l231 -360h-155z" />
<glyph unicode="&#xac;" horiz-adv-x="1069" d="M84 559v158h901v-533h-156v375h-745z" />
<glyph unicode="&#xad;" horiz-adv-x="593" d="M68 412v135h458v-135h-458z" />
<glyph unicode="&#xae;" horiz-adv-x="1425" d="M70 623q0 130 51.5 249t137.5 205t205 137.5t249 51.5t249 -51.5t205 -137.5t137.5 -205t51.5 -249q0 -176 -87 -324t-234.5 -233.5t-321.5 -85.5t-321.5 85.5t-234.5 233.5t-87 324zM225 623q0 -223 142.5 -372t345.5 -149t345 149t142 372q0 146 -65.5 265.5t-177 186 t-244.5 66.5t-244.5 -66.5t-177.5 -186t-66 -265.5zM465 260v729h270q137 0 204 -50.5t67 -164.5q0 -178 -191 -194l195 -320h-140l-188 313h-82v-313h-135zM600 678h119q27 0 46 1.5t40.5 8t34.5 17.5t21.5 31.5t8.5 49.5q0 99 -149 99h-121v-207z" />
<glyph unicode="&#xaf;" horiz-adv-x="495" d="M-16 1096v104h528v-104h-528z" />
<glyph unicode="&#xb0;" horiz-adv-x="712" d="M102 1010q0 106 74 181t180 75t181 -75t75 -181t-75 -180t-181 -74t-180 74t-74 180zM215 1010q0 -59 41.5 -100.5t99.5 -41.5t100 42t42 100t-41.5 99.5t-100.5 41.5q-58 0 -99.5 -41.5t-41.5 -99.5z" />
<glyph unicode="&#xb1;" horiz-adv-x="1069" d="M84 0v158h901v-158h-901zM84 483v156h373v262h155v-262h373v-156h-373v-262h-155v262h-373z" />
<glyph unicode="&#xb2;" horiz-adv-x="643" d="M55 502v135q175 136 255 220q108 115 108 185q0 49 -44.5 74t-97.5 25q-101 0 -186 -51l-10 131q102 45 223 45q114 0 193 -54t79 -163q0 -50 -41.5 -119t-98.5 -129t-113 -107t-89 -63v-4h355v-125h-533z" />
<glyph unicode="&#xb3;" horiz-adv-x="643" d="M57 520l19 135q13 -13 64.5 -26t101.5 -13q41 0 80.5 7t74.5 30t35 58q0 56 -56.5 87t-121.5 31h-88v125h82q60 0 118 27t58 76q0 31 -28.5 51t-61.5 26.5t-68 6.5q-64 0 -174 -39l-6 127q113 37 219 37q115 0 196 -51.5t81 -151.5q0 -68 -54 -113t-125 -55v-4 q84 -11 134.5 -58t50.5 -128q0 -213 -330 -213q-99 0 -201 28z" />
<glyph unicode="&#xb4;" horiz-adv-x="495" d="M131 1034l158 258h194l-233 -258h-119z" />
<glyph unicode="&#xb5;" horiz-adv-x="1089" d="M143 -375v1284h166v-471q0 -165 43 -241t150 -82q139 0 207.5 100t68.5 272v422h168v-909h-162v143h-4q-36 -76 -117 -119.5t-180 -43.5q-112 0 -174 34v-389h-166z" />
<glyph unicode="&#xb6;" horiz-adv-x="1069" d="M35 911q0 332 422 332h481v-1442h-156v1317h-204v-1317h-158v793q-175 0 -280 88t-105 229z" />
<glyph unicode="&#xb7;" horiz-adv-x="495" d="M143 541q0 42 32 73t75 31t72.5 -30.5t29.5 -73.5q0 -42 -30 -74.5t-72 -32.5t-74.5 32.5t-32.5 74.5z" />
<glyph unicode="&#xb8;" horiz-adv-x="495" d="M180 -358l33 61q66 -27 115 -27q100 0 100 82q0 33 -24.5 51.5t-57.5 18.5q-32 0 -74 -14l-30 32l114 154h84l-82 -106l4 -5q21 9 54 9q62 0 104.5 -35t42.5 -94q0 -43 -21 -75.5t-56 -51.5t-74.5 -28t-81.5 -9q-86 0 -150 37z" />
<glyph unicode="&#xb9;" horiz-adv-x="643" d="M90 1104l197 149h145v-751h-158v616l-124 -96z" />
<glyph unicode="&#xba;" horiz-adv-x="706" d="M47 979q0 125 84 206t221 81q139 0 223 -81t84 -206q0 -121 -86 -204t-221 -83q-134 0 -219.5 83t-85.5 204zM193 979q0 -81 37.5 -132.5t121.5 -51.5q87 0 124.5 51.5t37.5 132.5q0 79 -41 130.5t-121 51.5t-119.5 -51t-39.5 -131z" />
<glyph unicode="&#xbb;" d="M129 119l231 360l-231 361h156l256 -361l-256 -360h-156zM487 119l232 360l-232 361h158l254 -361l-254 -360h-158z" />
<glyph unicode="&#xbc;" horiz-adv-x="1486" d="M59 1104l197 149h145v-751h-157v616l-125 -96zM254 -39l772 1321h129l-772 -1321h-129zM801 147v109l327 496h207v-480h92v-125h-92v-147h-157v147h-377zM946 272h232v355h-4z" />
<glyph unicode="&#xbd;" horiz-adv-x="1486" d="M59 1104l197 149h145v-751h-157v616l-125 -96zM199 -39l772 1321h129l-772 -1321h-129zM895 0v135q10 9 63.5 52t96.5 81t93.5 88t79.5 98.5t29 86.5q0 49 -45 72.5t-96 23.5q-101 0 -186 -51l-10 133q104 43 223 43q54 0 101 -12t86 -36t62 -67t23 -100 q0 -65 -69.5 -160t-148.5 -165.5t-124 -92.5v-4h354v-125h-532z" />
<glyph unicode="&#xbe;" horiz-adv-x="1486" d="M57 520l19 135q13 -13 64.5 -26t101.5 -13q41 0 80.5 7t74.5 30t35 58q0 56 -56.5 87t-121.5 31h-88v125h82q60 0 118 27t58 76q0 31 -28.5 51t-61.5 26.5t-68 6.5q-64 0 -174 -39l-6 127q113 37 219 37q115 0 196 -51.5t81 -151.5q0 -68 -54 -113t-125 -55v-4 q84 -11 134.5 -58t50.5 -128q0 -213 -330 -213q-99 0 -201 28zM332 -39l772 1321h127l-772 -1321h-127zM801 147v109l327 496h207v-480h92v-125h-92v-147h-157v147h-377zM946 272h232v355h-4z" />
<glyph unicode="&#xbf;" horiz-adv-x="890" d="M78 -33q0 68 29 132t70.5 113.5t83 97.5t70.5 104.5t29 113.5v31h168v-37q0 -68 -27 -129.5t-65 -108t-76 -91t-65 -99.5t-27 -114q0 -88 61.5 -133.5t153.5 -45.5q164 0 265 70l12 -168q-143 -59 -297 -59q-74 0 -142 21t-122.5 60t-87.5 102t-33 140zM344 709v200h199 v-200h-199z" />
<glyph unicode="&#xc0;" horiz-adv-x="1286" d="M20 0l533 1243h186l527 -1243h-195l-127 313h-608l-127 -313h-189zM391 459h496l-248 616zM467 1591h195l157 -258h-119z" />
<glyph unicode="&#xc1;" horiz-adv-x="1286" d="M20 0l533 1243h186l527 -1243h-195l-127 313h-608l-127 -313h-189zM391 459h496l-248 616zM467 1333l158 258h194l-233 -258h-119z" />
<glyph unicode="&#xc2;" horiz-adv-x="1286" d="M20 0l533 1243h186l527 -1243h-195l-127 313h-608l-127 -313h-189zM385 1333l176 258h162l178 -258h-144l-116 176l-115 -176h-141zM391 459h496l-248 616z" />
<glyph unicode="&#xc3;" horiz-adv-x="1286" d="M20 0l533 1243h186l527 -1243h-195l-127 313h-608l-127 -313h-189zM340 1348q4 34 13.5 64t27.5 62.5t51 52t76 19.5q48 0 143.5 -41t130.5 -41q71 0 82 82h82q-4 -34 -13.5 -64t-27.5 -62.5t-51 -52t-76 -19.5q-52 0 -150.5 41t-133.5 41q-59 0 -72 -82h-82zM391 459 h496l-248 616z" />
<glyph unicode="&#xc4;" horiz-adv-x="1286" d="M20 0l533 1243h186l527 -1243h-195l-127 313h-608l-127 -313h-189zM391 459h496l-248 616zM413 1348v178h166v-178h-166zM704 1348v178h168v-178h-168z" />
<glyph unicode="&#xc5;" horiz-adv-x="1286" d="M20 0l533 1243h186l527 -1243h-195l-127 313h-608l-127 -313h-189zM391 459h496l-248 616zM461 1460q0 74 53.5 127t128.5 53q74 0 128 -53.5t54 -126.5q0 -76 -54 -129t-128 -53q-75 0 -128.5 53t-53.5 129zM532 1460q0 -44 33.5 -77.5t77.5 -33.5q43 0 76.5 34t33.5 77 t-33 75.5t-77 32.5t-77.5 -32.5t-33.5 -75.5z" />
<glyph unicode="&#xc6;" horiz-adv-x="1681" d="M4 0l752 1243h782v-156h-494l23 -364h438v-156h-430l27 -409h454v-158h-618l-20 313h-529l-188 -313h-197zM473 459h436l-39 659h-4z" />
<glyph unicode="&#xc7;" horiz-adv-x="1089" d="M94 627q0 189 85.5 335.5t234.5 225t338 78.5q155 0 280 -54l-14 -174q-119 70 -258 70q-213 0 -345 -136.5t-132 -348.5q0 -107 37.5 -199.5t101 -155t149.5 -98t181 -35.5q71 0 148.5 17t121.5 45l12 -174q-45 -18 -123.5 -33t-140.5 -15q-33 0 -61 7l-68 -88l6 -7 q26 11 51 11q64 0 106 -34.5t42 -94.5q0 -56 -37.5 -94.5t-88.5 -54t-108 -15.5q-79 0 -149 37l33 61q69 -27 114 -27q101 0 101 82q0 34 -23.5 52t-58.5 18q-32 0 -74 -14l-29 32l103 142q-246 37 -390.5 207.5t-144.5 431.5z" />
<glyph unicode="&#xc8;" d="M168 0v1243h696v-156h-518v-364h471v-156h-471v-409h518v-158h-696zM319 1591h195l158 -258h-119z" />
<glyph unicode="&#xc9;" d="M168 0v1243h696v-156h-518v-364h471v-156h-471v-409h518v-158h-696zM319 1333l158 258h195l-234 -258h-119z" />
<glyph unicode="&#xca;" d="M168 0v1243h696v-156h-518v-364h471v-156h-471v-409h518v-158h-696zM238 1333l176 258h161l179 -258h-144l-116 176l-115 -176h-141z" />
<glyph unicode="&#xcb;" d="M168 0v1243h696v-156h-518v-364h471v-156h-471v-409h518v-158h-696zM266 1348v178h166v-178h-166zM557 1348v178h168v-178h-168z" />
<glyph unicode="&#xcc;" horiz-adv-x="495" d="M72 1591h194l158 -258h-119zM158 0v1243h178v-1243h-178z" />
<glyph unicode="&#xcd;" horiz-adv-x="495" d="M72 1333l157 258h195l-234 -258h-118zM158 0v1243h178v-1243h-178z" />
<glyph unicode="&#xce;" horiz-adv-x="495" d="M-10 1333l176 258h162l178 -258h-144l-116 176l-115 -176h-141zM158 0v1243h178v-1243h-178z" />
<glyph unicode="&#xcf;" horiz-adv-x="495" d="M18 1348v178h166v-178h-166zM158 0v1243h178v-1243h-178zM309 1348v178h168v-178h-168z" />
<glyph unicode="&#xd0;" horiz-adv-x="1286" d="M27 610v113h120v520h367q139 0 260 -42t211 -119t141.5 -193t51.5 -256q0 -309 -175.5 -471t-488.5 -162h-367v610h-120zM326 158h188q232 0 353.5 115.5t121.5 351.5q0 203 -127 332.5t-332 129.5h-204v-364h325v-113h-325v-452z" />
<glyph unicode="&#xd1;" horiz-adv-x="1286" d="M158 0v1243h241l549 -1001h4v1001h178v-1243h-229l-563 1022h-2v-1022h-178zM340 1347q4 34 13.5 64t27.5 63t51 52.5t76 19.5q48 0 143.5 -41t130.5 -41q71 0 82 82h82q-4 -34 -13.5 -64t-27.5 -63t-51 -52.5t-76 -19.5q-52 0 -151 41t-134 41q-58 0 -71 -82h-82z" />
<glyph unicode="&#xd2;" horiz-adv-x="1386" d="M94 623q0 184 70 329t207 229.5t321 84.5q185 0 322.5 -84.5t207.5 -229t70 -329.5q0 -291 -159 -467t-441 -176q-186 0 -322.5 81.5t-206 226t-69.5 335.5zM283 623q0 -76 15 -146.5t47.5 -133t80 -108.5t116 -73t150.5 -27q83 0 152 27t116.5 73t80.5 108.5t48 133 t15 146.5q0 97 -26.5 183.5t-76.5 154t-129.5 107.5t-179.5 40q-99 0 -178 -40t-129 -107.5t-76 -154t-26 -183.5zM516 1591h195l158 -258h-119z" />
<glyph unicode="&#xd3;" horiz-adv-x="1386" d="M94 623q0 184 70 329t207 229.5t321 84.5q185 0 322.5 -84.5t207.5 -229t70 -329.5q0 -291 -159 -467t-441 -176q-186 0 -322.5 81.5t-206 226t-69.5 335.5zM283 623q0 -76 15 -146.5t47.5 -133t80 -108.5t116 -73t150.5 -27q83 0 152 27t116.5 73t80.5 108.5t48 133 t15 146.5q0 97 -26.5 183.5t-76.5 154t-129.5 107.5t-179.5 40q-99 0 -178 -40t-129 -107.5t-76 -154t-26 -183.5zM516 1333l158 258h194l-233 -258h-119z" />
<glyph unicode="&#xd4;" horiz-adv-x="1386" d="M94 623q0 184 70 329t207 229.5t321 84.5q185 0 322.5 -84.5t207.5 -229t70 -329.5q0 -291 -159 -467t-441 -176q-186 0 -322.5 81.5t-206 226t-69.5 335.5zM283 623q0 -76 15 -146.5t47.5 -133t80 -108.5t116 -73t150.5 -27q83 0 152 27t116.5 73t80.5 108.5t48 133 t15 146.5q0 97 -26.5 183.5t-76.5 154t-129.5 107.5t-179.5 40q-99 0 -178 -40t-129 -107.5t-76 -154t-26 -183.5zM434 1333l176 258h162l178 -258h-143l-117 176l-115 -176h-141z" />
<glyph unicode="&#xd5;" horiz-adv-x="1386" d="M94 623q0 184 70 329t207 229.5t321 84.5q185 0 322.5 -84.5t207.5 -229t70 -329.5q0 -291 -159 -467t-441 -176q-186 0 -322.5 81.5t-206 226t-69.5 335.5zM283 623q0 -76 15 -146.5t47.5 -133t80 -108.5t116 -73t150.5 -27q83 0 152 27t116.5 73t80.5 108.5t48 133 t15 146.5q0 97 -26.5 183.5t-76.5 154t-129.5 107.5t-179.5 40q-99 0 -178 -40t-129 -107.5t-76 -154t-26 -183.5zM389 1348q4 34 13.5 64t27.5 62.5t51 52t76 19.5q48 0 143.5 -41t130.5 -41q71 0 82 82h82q-4 -34 -13.5 -64t-27.5 -62.5t-51 -52t-76 -19.5 q-52 0 -150.5 41t-133.5 41q-59 0 -72 -82h-82z" />
<glyph unicode="&#xd6;" horiz-adv-x="1386" d="M94 623q0 184 70 329t207 229.5t321 84.5q185 0 322.5 -84.5t207.5 -229t70 -329.5q0 -291 -159 -467t-441 -176q-186 0 -322.5 81.5t-206 226t-69.5 335.5zM283 623q0 -76 15 -146.5t47.5 -133t80 -108.5t116 -73t150.5 -27q83 0 152 27t116.5 73t80.5 108.5t48 133 t15 146.5q0 97 -26.5 183.5t-76.5 154t-129.5 107.5t-179.5 40q-99 0 -178 -40t-129 -107.5t-76 -154t-26 -183.5zM463 1348v178h166v-178h-166zM754 1348v178h168v-178h-168z" />
<glyph unicode="&#xd7;" horiz-adv-x="1069" d="M121 147l303 304l-303 303l110 110l304 -305l303 305l110 -110l-305 -303l305 -304l-110 -110l-303 305l-304 -305z" />
<glyph unicode="&#xd8;" horiz-adv-x="1386" d="M94 623q0 184 70 329t207 229.5t321 84.5q204 0 361 -111l94 123l65 -51l-96 -125q176 -185 176 -479q0 -291 -159 -467t-441 -176q-216 0 -360 108l-96 -125l-68 45l100 133q-174 174 -174 482zM283 623q0 -208 98 -338l567 735q-105 88 -248 88q-102 0 -182.5 -39 t-131 -106.5t-77 -154t-26.5 -185.5zM438 225q103 -90 254 -90q83 0 152 27t116.5 73t80.5 108.5t48 133t15 146.5q0 197 -100 333z" />
<glyph unicode="&#xd9;" horiz-adv-x="1286" d="M160 514v729h178v-704q0 -404 305 -404t305 404v704h178v-729q0 -261 -125 -397.5t-358 -136.5t-358 136.5t-125 397.5zM467 1591h195l158 -258h-119z" />
<glyph unicode="&#xda;" horiz-adv-x="1286" d="M160 514v729h178v-704q0 -404 305 -404t305 404v704h178v-729q0 -261 -125 -397.5t-358 -136.5t-358 136.5t-125 397.5zM467 1333l158 258h194l-233 -258h-119z" />
<glyph unicode="&#xdb;" horiz-adv-x="1286" d="M160 514v729h178v-704q0 -404 305 -404t305 404v704h178v-729q0 -261 -125 -397.5t-358 -136.5t-358 136.5t-125 397.5zM385 1333l176 258h162l178 -258h-143l-117 176l-115 -176h-141z" />
<glyph unicode="&#xdc;" horiz-adv-x="1286" d="M160 514v729h178v-704q0 -404 305 -404t305 404v704h178v-729q0 -261 -125 -397.5t-358 -136.5t-358 136.5t-125 397.5zM414 1348v178h166v-178h-166zM705 1348v178h167v-178h-167z" />
<glyph unicode="&#xdd;" horiz-adv-x="1187" d="M20 1243h207l371 -557l363 557h208l-485 -723v-520h-178v520zM418 1333l158 258h194l-233 -258h-119z" />
<glyph unicode="&#xde;" d="M147 0v1243h179v-180h147q80 0 147.5 -11.5t127.5 -39t101.5 -69.5t66 -106.5t24.5 -146.5q0 -100 -36.5 -174.5t-100 -117t-139.5 -63t-164 -20.5h-174v-315h-179zM326 473h176q46 0 87.5 11t79.5 35t60.5 68.5t22.5 104.5q0 55 -27 98.5t-70 67t-88.5 35.5t-89.5 12 h-151v-432z" />
<glyph unicode="&#xdf;" horiz-adv-x="1089" d="M143 0v844q0 255 102 384.5t335 129.5q66 0 129 -22t115 -64t84 -110.5t32 -153.5q0 -224 -207 -289v-4q123 -17 193.5 -111t70.5 -217q0 -172 -105.5 -284.5t-287.5 -112.5q-93 0 -172 24v142q70 -31 139 -31q107 0 177.5 67.5t70.5 186.5q0 75 -24.5 126.5t-71 79.5 t-104 40t-134.5 12v135q136 0 206.5 51.5t70.5 180.5q0 90 -54 154.5t-145 64.5q-57 0 -102.5 -21.5t-73.5 -55.5t-46 -81t-25 -95t-7 -100v-870h-166z" />
<glyph unicode="&#xe0;" d="M82 262q0 80 41 141t106.5 93.5t135 48.5t139.5 16h90q22 0 88 -4q0 122 -51 180t-172 58q-72 0 -142.5 -25t-121.5 -68l-11 142q142 86 301 86q192 0 278.5 -92.5t86.5 -282.5v-377q0 -97 6 -178h-156v117h-4q-37 -54 -107.5 -95.5t-172.5 -41.5q-156 0 -245 68t-89 214 zM260 262q0 -67 52.5 -107t117.5 -40q120 0 186 66.5t66 170.5v80q-18 0 -54 2t-53 2q-28 0 -55 -2t-66 -7.5t-71 -18t-61 -30.5t-45.5 -48t-16.5 -68zM319 1292h195l158 -258h-119z" />
<glyph unicode="&#xe1;" d="M82 262q0 80 41 141t106.5 93.5t135 48.5t139.5 16h90q22 0 88 -4q0 122 -51 180t-172 58q-72 0 -142.5 -25t-121.5 -68l-11 142q142 86 301 86q192 0 278.5 -92.5t86.5 -282.5v-377q0 -97 6 -178h-156v117h-4q-37 -54 -107.5 -95.5t-172.5 -41.5q-156 0 -245 68t-89 214 zM260 262q0 -67 52.5 -107t117.5 -40q120 0 186 66.5t66 170.5v80q-18 0 -54 2t-53 2q-28 0 -55 -2t-66 -7.5t-71 -18t-61 -30.5t-45.5 -48t-16.5 -68zM319 1034l158 258h195l-234 -258h-119z" />
<glyph unicode="&#xe2;" d="M82 262q0 80 41 141t106.5 93.5t135 48.5t139.5 16h90q22 0 88 -4q0 122 -51 180t-172 58q-72 0 -142.5 -25t-121.5 -68l-11 142q142 86 301 86q192 0 278.5 -92.5t86.5 -282.5v-377q0 -97 6 -178h-156v117h-4q-37 -54 -107.5 -95.5t-172.5 -41.5q-156 0 -245 68t-89 214 zM238 1034l176 258h161l179 -258h-144l-116 176l-115 -176h-141zM260 262q0 -67 52.5 -107t117.5 -40q120 0 186 66.5t66 170.5v80q-18 0 -54 2t-53 2q-28 0 -55 -2t-66 -7.5t-71 -18t-61 -30.5t-45.5 -48t-16.5 -68z" />
<glyph unicode="&#xe3;" d="M82 262q0 80 41 141t106.5 93.5t135 48.5t139.5 16h90q22 0 88 -4q0 122 -51 180t-172 58q-72 0 -142.5 -25t-121.5 -68l-11 142q142 86 301 86q192 0 278.5 -92.5t86.5 -282.5v-377q0 -97 6 -178h-156v117h-4q-37 -54 -107.5 -95.5t-172.5 -41.5q-156 0 -245 68t-89 214 zM193 1044q4 34 13.5 64t27 63t50.5 52.5t76 19.5q48 0 144 -41t131 -41q71 0 82 82h82q-4 -34 -13.5 -64t-27.5 -63t-51 -52.5t-76 -19.5q-52 0 -151 41t-134 41q-59 0 -72 -82h-81zM260 262q0 -67 52.5 -107t117.5 -40q120 0 186 66.5t66 170.5v80q-18 0 -54 2t-53 2 q-28 0 -55 -2t-66 -7.5t-71 -18t-61 -30.5t-45.5 -48t-16.5 -68z" />
<glyph unicode="&#xe4;" d="M82 262q0 80 41 141t106.5 93.5t135 48.5t139.5 16h90q22 0 88 -4q0 122 -51 180t-172 58q-72 0 -142.5 -25t-121.5 -68l-11 142q142 86 301 86q192 0 278.5 -92.5t86.5 -282.5v-377q0 -97 6 -178h-156v117h-4q-37 -54 -107.5 -95.5t-172.5 -41.5q-156 0 -245 68t-89 214 zM260 262q0 -67 52.5 -107t117.5 -40q120 0 186 66.5t66 170.5v80q-18 0 -54 2t-53 2q-28 0 -55 -2t-66 -7.5t-71 -18t-61 -30.5t-45.5 -48t-16.5 -68zM266 1049v178h166v-178h-166zM557 1049v178h168v-178h-168z" />
<glyph unicode="&#xe5;" d="M82 262q0 80 41 141t106.5 93.5t135 48.5t139.5 16h90q22 0 88 -4q0 122 -51 180t-172 58q-72 0 -142.5 -25t-121.5 -68l-11 142q142 86 301 86q192 0 278.5 -92.5t86.5 -282.5v-377q0 -97 6 -178h-156v117h-4q-37 -54 -107.5 -95.5t-172.5 -41.5q-156 0 -245 68t-89 214 zM260 262q0 -67 52.5 -107t117.5 -40q120 0 186 66.5t66 170.5v80q-18 0 -54 2t-53 2q-28 0 -55 -2t-66 -7.5t-71 -18t-61 -30.5t-45.5 -48t-16.5 -68zM313 1186q0 74 54 127t129 53q74 0 128 -53.5t54 -126.5q0 -76 -54 -129t-128 -53q-75 0 -129 53t-54 129zM385 1186 q0 -44 33.5 -77.5t77.5 -33.5q43 0 76.5 34t33.5 77t-33 75.5t-77 32.5t-77.5 -32.5t-33.5 -75.5z" />
<glyph unicode="&#xe6;" horiz-adv-x="1583" d="M74 268q0 60 21 108.5t58 79.5t80.5 52.5t95.5 32.5t95.5 15.5t87.5 4.5q56 0 117 -4t71 -4q0 123 -71.5 182.5t-184.5 59.5q-125 0 -254 -93l-8 142q133 86 301 86q98 0 185.5 -39.5t128.5 -118.5q45 81 128.5 119.5t186.5 38.5q89 0 158.5 -28t114 -75.5t73.5 -114.5 t41 -139t12 -155h-643q0 -129 84 -216t213 -87q64 0 131.5 26.5t120.5 67.5v-170q-135 -59 -260 -59q-86 0 -159.5 17.5t-139 66.5t-94.5 126h-4q-16 -68 -70 -117t-122.5 -71t-143.5 -22q-88 0 -166 32t-131 99.5t-53 156.5zM252 264q0 -72 51.5 -110.5t126.5 -38.5 q117 0 193.5 93t76.5 224q-7 0 -59.5 2t-99.5 2q-35 0 -67.5 -2.5t-75 -13t-73 -28t-52 -51t-21.5 -77.5zM868 541h465q0 97 -62.5 175.5t-160.5 78.5q-108 0 -175 -72.5t-67 -181.5z" />
<glyph unicode="&#xe7;" horiz-adv-x="790" d="M68 455q0 209 127.5 342t334.5 133q49 0 107.5 -10.5t95.5 -24.5l-14 -139q-98 39 -180 39q-133 0 -213 -101.5t-80 -238.5q0 -51 10.5 -98.5t34.5 -92t58.5 -77.5t86 -52.5t113.5 -19.5q101 0 180 51l12 -150q-74 -36 -217 -36l-65 -86l2 -5q24 9 53 9q64 0 107 -34.5 t43 -94.5q0 -56 -37.5 -94.5t-88.5 -54t-108 -15.5q-85 0 -149 37l30 61q69 -27 117 -27q40 0 70 18.5t30 63.5q0 33 -24.5 51.5t-57.5 18.5q-31 0 -73 -14l-31 32l104 142q-168 29 -273 160t-105 307z" />
<glyph unicode="&#xe8;" d="M82 471q0 202 117.5 330.5t308.5 128.5q401 0 401 -512h-649q0 -132 88.5 -217.5t210.5 -85.5q78 0 158.5 29.5t122.5 60.5v-168q-5 -2 -39.5 -14t-50 -16.5t-49 -12.5t-69.5 -11t-79 -3q-235 0 -353 130.5t-118 360.5zM260 541h471q0 109 -61.5 181.5t-165.5 72.5 q-60 0 -106 -22.5t-73.5 -61t-42.5 -80t-22 -90.5zM319 1292h195l158 -258h-119z" />
<glyph unicode="&#xe9;" d="M82 471q0 202 117.5 330.5t308.5 128.5q401 0 401 -512h-649q0 -132 88.5 -217.5t210.5 -85.5q78 0 158.5 29.5t122.5 60.5v-168q-5 -2 -39.5 -14t-50 -16.5t-49 -12.5t-69.5 -11t-79 -3q-235 0 -353 130.5t-118 360.5zM260 541h471q0 109 -61.5 181.5t-165.5 72.5 q-60 0 -106 -22.5t-73.5 -61t-42.5 -80t-22 -90.5zM319 1034l158 258h195l-234 -258h-119z" />
<glyph unicode="&#xea;" d="M82 471q0 202 117.5 330.5t308.5 128.5q401 0 401 -512h-649q0 -132 88.5 -217.5t210.5 -85.5q78 0 158.5 29.5t122.5 60.5v-168q-5 -2 -39.5 -14t-50 -16.5t-49 -12.5t-69.5 -11t-79 -3q-235 0 -353 130.5t-118 360.5zM238 1034l176 258h161l179 -258h-144l-116 176 l-115 -176h-141zM260 541h471q0 109 -61.5 181.5t-165.5 72.5q-60 0 -106 -22.5t-73.5 -61t-42.5 -80t-22 -90.5z" />
<glyph unicode="&#xeb;" d="M82 471q0 202 117.5 330.5t308.5 128.5q401 0 401 -512h-649q0 -132 88.5 -217.5t210.5 -85.5q78 0 158.5 29.5t122.5 60.5v-168q-5 -2 -39.5 -14t-50 -16.5t-49 -12.5t-69.5 -11t-79 -3q-235 0 -353 130.5t-118 360.5zM260 541h471q0 109 -61.5 181.5t-165.5 72.5 q-60 0 -106 -22.5t-73.5 -61t-42.5 -80t-22 -90.5zM266 1049v178h166v-178h-166zM557 1049v178h168v-178h-168z" />
<glyph unicode="&#xec;" horiz-adv-x="495" d="M71 1292h195l158 -258h-119zM164 0v909h168v-909h-168z" />
<glyph unicode="&#xed;" horiz-adv-x="495" d="M72 1034l157 258h195l-234 -258h-118zM164 0v909h168v-909h-168z" />
<glyph unicode="&#xee;" horiz-adv-x="495" d="M-10 1034l176 258h162l178 -258h-144l-116 176l-115 -176h-141zM164 0v909h168v-909h-168z" />
<glyph unicode="&#xef;" horiz-adv-x="495" d="M18 1049v178h166v-178h-166zM164 0v909h168v-909h-168zM309 1049v178h168v-178h-168z" />
<glyph unicode="&#xf0;" horiz-adv-x="1089" d="M82 455q0 209 128 342t335 133q90 0 149 -39h4q-80 110 -194 192l-230 -122l-81 94l196 104q-82 52 -223 105l129 94q141 -53 244 -117l217 117l82 -94l-187 -101q161 -123 259 -304t98 -404q0 -130 -58.5 -238.5t-165 -172.5t-239.5 -64t-239.5 64t-165 172.5 t-58.5 238.5zM260 455q0 -86 29 -161t95.5 -127t160.5 -52q93 0 159.5 52t95.5 127t29 161q0 88 -33 164.5t-99 126t-152 49.5q-128 0 -206.5 -102t-78.5 -238z" />
<glyph unicode="&#xf1;" horiz-adv-x="1089" d="M143 0v909h162v-145h4q36 78 117 122t180 44q173 0 256.5 -100.5t83.5 -288.5v-541h-168v471q0 165 -42.5 241.5t-149.5 82.5q-138 0 -207.5 -101t-69.5 -274v-420h-166zM242 1044q4 34 13.5 64t27.5 63t51 52.5t76 19.5q48 0 143.5 -41t130.5 -41q71 0 82 82h82 q-4 -34 -13.5 -64t-27.5 -63t-51 -52.5t-76 -19.5q-52 0 -151 41t-134 41q-58 0 -71 -82h-82z" />
<glyph unicode="&#xf2;" horiz-adv-x="1089" d="M82 455q0 209 128 342t335 133q206 0 334.5 -133.5t128.5 -341.5q0 -130 -58.5 -238.5t-165 -172.5t-239.5 -64t-239.5 64t-165 172.5t-58.5 238.5zM260 455q0 -86 29 -161t95.5 -127t160.5 -52q93 0 159.5 52t95.5 127t29 161q0 88 -33 164.5t-99 126t-152 49.5 q-128 0 -206.5 -102t-78.5 -238zM369 1292h194l158 -258h-119z" />
<glyph unicode="&#xf3;" horiz-adv-x="1089" d="M82 455q0 209 128 342t335 133q206 0 334.5 -133.5t128.5 -341.5q0 -130 -58.5 -238.5t-165 -172.5t-239.5 -64t-239.5 64t-165 172.5t-58.5 238.5zM260 455q0 -86 29 -161t95.5 -127t160.5 -52q93 0 159.5 52t95.5 127t29 161q0 88 -33 164.5t-99 126t-152 49.5 q-128 0 -206.5 -102t-78.5 -238zM369 1034l157 258h195l-234 -258h-118z" />
<glyph unicode="&#xf4;" horiz-adv-x="1089" d="M82 455q0 209 128 342t335 133q206 0 334.5 -133.5t128.5 -341.5q0 -130 -58.5 -238.5t-165 -172.5t-239.5 -64t-239.5 64t-165 172.5t-58.5 238.5zM260 455q0 -86 29 -161t95.5 -127t160.5 -52q93 0 159.5 52t95.5 127t29 161q0 88 -33 164.5t-99 126t-152 49.5 q-128 0 -206.5 -102t-78.5 -238zM287 1034l176 258h162l178 -258h-144l-116 176l-115 -176h-141z" />
<glyph unicode="&#xf5;" horiz-adv-x="1089" d="M82 455q0 209 128 342t335 133q206 0 334.5 -133.5t128.5 -341.5q0 -130 -58.5 -238.5t-165 -172.5t-239.5 -64t-239.5 64t-165 172.5t-58.5 238.5zM242 1044q4 34 13.5 64t27.5 63t51 52.5t76 19.5q48 0 143.5 -41t130.5 -41q71 0 82 82h82q-4 -34 -13.5 -64t-27.5 -63 t-51 -52.5t-76 -19.5q-52 0 -151 41t-134 41q-58 0 -71 -82h-82zM260 455q0 -86 29 -161t95.5 -127t160.5 -52q93 0 159.5 52t95.5 127t29 161q0 88 -33 164.5t-99 126t-152 49.5q-128 0 -206.5 -102t-78.5 -238z" />
<glyph unicode="&#xf6;" horiz-adv-x="1089" d="M82 455q0 209 128 342t335 133q206 0 334.5 -133.5t128.5 -341.5q0 -130 -58.5 -238.5t-165 -172.5t-239.5 -64t-239.5 64t-165 172.5t-58.5 238.5zM260 455q0 -86 29 -161t95.5 -127t160.5 -52q93 0 159.5 52t95.5 127t29 161q0 88 -33 164.5t-99 126t-152 49.5 q-128 0 -206.5 -102t-78.5 -238zM315 1049v178h166v-178h-166zM606 1049v178h168v-178h-168z" />
<glyph unicode="&#xf7;" horiz-adv-x="1069" d="M84 373v155h901v-155h-901zM399 82q0 57 40.5 96t97.5 39q54 0 94.5 -40t40.5 -95q0 -53 -40.5 -95t-92.5 -42q-58 0 -99 41t-41 96zM399 819q0 57 40.5 97t97.5 40q53 0 94 -41t41 -96q0 -52 -40.5 -93.5t-92.5 -41.5q-58 0 -99 40t-41 95z" />
<glyph unicode="&#xf8;" horiz-adv-x="1089" d="M82 455q0 209 128 342t335 133q162 0 272 -82l94 117l56 -45l-97 -117q138 -129 138 -348q0 -130 -58.5 -238.5t-165 -172.5t-239.5 -64q-159 0 -277 88l-100 -123l-53 45l100 127q-133 139 -133 338zM260 455q0 -124 59 -215l400 487q-74 68 -174 68q-128 0 -206.5 -102 t-78.5 -238zM362 184q75 -69 183 -69q93 0 159.5 52t95.5 127t29 161q0 124 -65 219z" />
<glyph unicode="&#xf9;" horiz-adv-x="1089" d="M143 369v540h166v-471q0 -165 43 -241t150 -82q139 0 207.5 100t68.5 272v422h168v-909h-162v143h-4q-36 -76 -117 -119.5t-180 -43.5q-340 0 -340 389zM369 1292h194l158 -258h-119z" />
<glyph unicode="&#xfa;" horiz-adv-x="1089" d="M143 369v540h166v-471q0 -165 43 -241t150 -82q139 0 207.5 100t68.5 272v422h168v-909h-162v143h-4q-36 -76 -117 -119.5t-180 -43.5q-340 0 -340 389zM369 1034l157 258h195l-234 -258h-118z" />
<glyph unicode="&#xfb;" horiz-adv-x="1089" d="M143 369v540h166v-471q0 -165 43 -241t150 -82q139 0 207.5 100t68.5 272v422h168v-909h-162v143h-4q-36 -76 -117 -119.5t-180 -43.5q-340 0 -340 389zM287 1034l176 258h162l178 -258h-144l-116 176l-115 -176h-141z" />
<glyph unicode="&#xfc;" horiz-adv-x="1089" d="M143 369v540h166v-471q0 -165 43 -241t150 -82q139 0 207.5 100t68.5 272v422h168v-909h-162v143h-4q-36 -76 -117 -119.5t-180 -43.5q-340 0 -340 389zM315 1049v178h166v-178h-166zM606 1049v178h168v-178h-168z" />
<glyph unicode="&#xfd;" horiz-adv-x="890" d="M12 909h185l243 -751h4l248 751h170l-342 -950q-14 -39 -21 -57t-22 -54.5t-25.5 -55.5t-28.5 -49t-34 -46t-40 -36.5t-48.5 -30.5t-56 -17.5t-66.5 -7.5q-68 0 -115 12l13 137q31 -14 78 -14q42 0 78 21.5t57 52t36 64t21 56.5t6 31q-2 19 -30 96zM268 1034l158 258h194 l-233 -258h-119z" />
<glyph unicode="&#xfe;" horiz-adv-x="1089" d="M143 -375v1712h166v-553h4q91 146 301 146q126 0 217.5 -65t134 -167t42.5 -227q0 -98 -23.5 -184.5t-69.5 -156t-123 -110t-176 -40.5q-215 0 -303 145h-4v-500h-166zM309 453q0 -60 16 -117.5t47 -108t84.5 -81.5t121.5 -31q65 0 115.5 33t79 85.5t42.5 110t14 115.5 q0 63 -14 120.5t-42 107t-78 79t-115 29.5q-87 0 -150 -51t-92 -127t-29 -164z" />
<glyph unicode="&#xff;" horiz-adv-x="890" d="M12 909h185l243 -751h4l248 751h170l-342 -950q-14 -39 -21 -57t-22 -54.5t-25.5 -55.5t-28.5 -49t-34 -46t-40 -36.5t-48.5 -30.5t-56 -17.5t-66.5 -7.5q-68 0 -115 12l13 137q31 -14 78 -14q42 0 78 21.5t57 52t36 64t21 56.5t6 31q-2 19 -30 96zM215 1049v178h166 v-178h-166zM506 1049v178h168v-178h-168z" />
<glyph unicode="&#x131;" horiz-adv-x="495" d="M164 0v909h168v-909h-168z" />
<glyph unicode="&#x141;" horiz-adv-x="890" d="M43 352v129l115 68v694h178v-592l348 205v-127l-348 -205v-366h520v-158h-698v420z" />
<glyph unicode="&#x142;" horiz-adv-x="495" d="M49 514v127l115 92v604h168v-473l114 90v-125l-114 -92v-737h-168v606z" />
<glyph unicode="&#x152;" horiz-adv-x="1681" d="M94 637q0 187 86.5 327t242 214.5t357.5 74.5q44 0 131 -5t129 -5h519v-156h-502v-364h467v-156h-467v-409h514v-158h-516q-46 0 -139.5 -5t-139.5 -5q-198 0 -351.5 75t-242 223t-88.5 349zM283 637q0 -229 135 -360.5t354 -131.5q62 0 107 13v929q-14 1 -52 6t-57 5 q-228 0 -357.5 -119.5t-129.5 -341.5z" />
<glyph unicode="&#x153;" horiz-adv-x="1681" d="M74 455q0 92 31 177t87.5 151.5t142.5 106.5t189 40q128 0 221.5 -44.5t139.5 -133.5q41 90 126 134t199 44q89 0 158.5 -28t114.5 -75.5t74 -114.5t41 -139t12 -155h-643q0 -129 84 -216t213 -87q64 0 131.5 26.5t120.5 67.5v-170q-135 -59 -263 -59q-134 0 -231.5 48.5 t-140.5 145.5q-46 -98 -147 -146t-210 -48q-208 0 -329 132.5t-121 342.5zM252 455q0 -68 15.5 -127t46.5 -108t85.5 -77t126.5 -28q122 0 197.5 104t75.5 236q0 46 -10.5 93t-32.5 91.5t-53.5 79t-77 55.5t-99.5 21q-69 0 -123.5 -31.5t-86.5 -82.5t-48 -109t-16 -117z M967 541h465q0 97 -63 175.5t-161 78.5q-110 0 -175.5 -72t-65.5 -182z" />
<glyph unicode="&#x160;" horiz-adv-x="890" d="M84 926q0 159 112.5 249.5t286.5 90.5q143 0 265 -45l-25 -164q-74 29 -121 40t-113 11q-40 0 -76 -8t-69 -26t-52.5 -52t-19.5 -80q0 -48 29.5 -86t76.5 -65t104 -53.5t114.5 -59.5t104.5 -74t76.5 -106.5t29.5 -147.5q0 -97 -35.5 -170t-99 -116t-143.5 -63.5 t-177 -20.5q-99 0 -254 51l19 166q50 -24 123 -43t135 -19q55 0 108 19.5t94 67.5t41 116q0 56 -29.5 99.5t-76.5 72.5t-104 55t-114 56.5t-104 68t-76.5 98t-29.5 138.5zM189 1591h141l119 -176l115 176h141l-176 -258h-162z" />
<glyph unicode="&#x161;" horiz-adv-x="692" d="M61 651q0 137 89 208t231 71q81 0 209 -35l-15 -147q-25 19 -84 33t-92 14q-68 0 -113.5 -28.5t-45.5 -82.5q0 -37 21.5 -66t56.5 -48.5t76.5 -37.5t83.5 -40.5t77 -50.5t56.5 -74t21.5 -105q0 -94 -46.5 -159.5t-116.5 -94t-155 -28.5q-158 0 -249 49l10 149 q47 -31 105.5 -47t101.5 -16q68 0 120 31t52 98q0 34 -21.5 61.5t-56.5 48t-77 40t-84 42.5t-77 50.5t-56.5 70t-21.5 94.5zM88 1292h141l119 -176l115 176h141l-176 -258h-162z" />
<glyph unicode="&#x178;" horiz-adv-x="1187" d="M20 1243h207l371 -557l363 557h208l-485 -723v-520h-178v520zM365 1348v178h165v-178h-165zM655 1348v178h168v-178h-168z" />
<glyph unicode="&#x17d;" d="M57 0v160l645 927h-624v156h829v-160l-643 -925h654v-158h-861zM238 1591h141l119 -176l114 176h142l-176 -258h-162z" />
<glyph unicode="&#x17e;" horiz-adv-x="890" d="M76 0v145l524 629h-498v135h693v-147l-525 -627h545v-135h-739zM186 1292h142l118 -176l115 176h141l-176 -258h-161z" />
<glyph unicode="&#x192;" d="M59 -387l29 145q21 -8 53 -8q40 0 69 15.5t45 46t24.5 58t15.5 69.5l127 673h-199l23 125h200l37 195q11 58 24 101.5t37.5 89.5t57 75.5t84 48.5t117.5 19q23 0 66.5 -7t62.5 -8l-25 -143q-45 10 -73 10q-47 0 -78.5 -13.5t-50 -42.5t-28 -59t-18.5 -79l-36 -187h223 l-25 -125h-225l-123 -655q-10 -51 -17.5 -84t-21 -74t-28.5 -66.5t-38.5 -52.5t-53.5 -41.5t-71.5 -24t-92.5 -9.5q-58 0 -91 8z" />
<glyph unicode="&#x2c6;" horiz-adv-x="495" d="M-10 1034l176 258h162l178 -258h-144l-116 176l-115 -176h-141z" />
<glyph unicode="&#x2c7;" horiz-adv-x="495" d="M-10 1292h141l119 -176l115 176h141l-176 -258h-162z" />
<glyph unicode="&#x2d8;" horiz-adv-x="495" d="M-27 1286h88q26 -139 187 -139q160 0 186 139h88q-12 -115 -84.5 -178.5t-189.5 -63.5q-118 0 -190.5 63.5t-84.5 178.5z" />
<glyph unicode="&#x2d9;" horiz-adv-x="495" d="M164 1049v178h168v-178h-168z" />
<glyph unicode="&#x2da;" horiz-adv-x="495" d="M66 1186q0 74 53.5 127t128.5 53q74 0 128 -53.5t54 -126.5q0 -76 -54 -129t-128 -53q-75 0 -128.5 53t-53.5 129zM137 1186q0 -44 33.5 -77.5t77.5 -33.5q43 0 76.5 34t33.5 77t-33 75.5t-77 32.5t-77.5 -32.5t-33.5 -75.5z" />
<glyph unicode="&#x2db;" horiz-adv-x="495" d="M121 -227q0 15 7 35t26 50t63 68t107 74h86q-88 -69 -121 -120.5t-33 -100.5q0 -41 16.5 -61.5t42.5 -20.5q62 0 101 51l55 -14q-39 -56 -87 -82.5t-116 -26.5q-19 0 -33 1.5t-37.5 9.5t-38.5 22.5t-26.5 44t-11.5 70.5z" />
<glyph unicode="&#x2dc;" horiz-adv-x="495" d="M-55 1044q4 34 13.5 64t27.5 63t51 52.5t76 19.5q48 0 143.5 -41t130.5 -41q71 0 82 82h82q-4 -34 -13.5 -64t-27.5 -63t-51 -52.5t-76 -19.5q-52 0 -151 41t-134 41q-58 0 -71 -82h-82z" />
<glyph unicode="&#x2dd;" horiz-adv-x="495" d="M-31 1034l160 258h193l-232 -258h-121zM293 1034l158 258h194l-233 -258h-119z" />
<glyph unicode="&#x3a9;" horiz-adv-x="1333" d="M84 0v119h344v129q-161 43 -252.5 179t-91.5 308q0 158 78 284.5t208 195.5t285 69q116 0 221 -40.5t182.5 -111t123 -173t45.5 -220.5q0 -114 -38.5 -213.5t-117 -173.5t-186.5 -104v-129h342v-119h-457v326q152 30 232.5 138t80.5 267q0 183 -121.5 304.5t-306.5 121.5 q-183 0 -306.5 -121.5t-123.5 -304.5q0 -157 83 -269t233 -136v-326h-457z" />
<glyph unicode="&#x3c0;" horiz-adv-x="1015" d="M4 731v123h963v-123h-136v-532q0 -48 13.5 -72.5t54.5 -24.5q33 0 76 19v-101q-68 -30 -123 -30q-42 0 -71.5 11.5t-45.5 29t-24.5 48t-10.5 56.5t-2 68v528h-438v-731h-133v731h-123z" />
<glyph unicode="&#xe00;" horiz-adv-x="399" />
<glyph unicode="&#xe01;" horiz-adv-x="1071" d="M78 770q39 122 167.5 210.5t295.5 88.5q189 0 314.5 -108t125.5 -271v-690h-174v682q0 117 -72.5 183.5t-193.5 66.5q-100 0 -174.5 -44t-114.5 -118l115 -137q-42 -28 -61 -65.5t-19 -96.5v-471h-174v444q0 55 22.5 109.5t59.5 79.5z" />
<glyph unicode="&#xe02;" horiz-adv-x="987" d="M90 336v166q0 40 20.5 78t50 67.5t58.5 57t49.5 56.5t20.5 56v31q0 26 -10 36.5t-35 10.5h-152v152h191q86 0 133 -47.5t47 -122.5v-58q0 -44 -20.5 -83t-49.5 -67t-58.5 -54t-50 -55t-20.5 -58v-140q0 -121 57.5 -180t178.5 -59q113 0 168 55t55 189v680h174v-678 q0 -187 -98.5 -285t-298.5 -98q-199 0 -304.5 96.5t-105.5 253.5z" />
<glyph unicode="&#xe03;" horiz-adv-x="1001" d="M51 905v148l133 -62q20 28 57.5 47t82.5 19q72 0 112.5 -47t40.5 -123v-66q0 -44 -20.5 -83t-50.5 -67t-59.5 -54.5t-50 -55.5t-20.5 -59v-140q0 -121 58.5 -180t179.5 -59q113 0 168 55t55 189v680h174v-678q0 -187 -98.5 -285t-298.5 -98q-199 0 -305.5 96.5 t-106.5 253.5v166q0 40 22 78.5t54 69t63.5 59.5t53.5 59.5t22 58.5v45q0 20 -14 33t-37 13q-53 0 -76 -64z" />
<glyph unicode="&#xe04;" horiz-adv-x="1073" d="M90 0v690q0 170 121.5 274.5t325.5 104.5q203 0 324.5 -104.5t121.5 -274.5v-690h-174v692q0 116 -70 178t-202 62q-127 0 -200 -63t-73 -177v-229q16 41 63.5 71.5t108.5 30.5h166v-153h-172q-77 0 -121.5 -50.5t-44.5 -125.5v-236h-174z" />
<glyph unicode="&#xe05;" horiz-adv-x="1097" d="M90 0v721q0 136 70.5 226t195.5 118l193 -111l192 111q126 -28 196.5 -117.5t70.5 -226.5v-721h-174v731q0 141 -103 178l-182 -96l-182 96q-103 -36 -103 -178v-268q16 41 63.5 71.5t108.5 30.5h166v-153h-172q-77 0 -121.5 -50.5t-44.5 -125.5v-236h-174z" />
<glyph unicode="&#xe06;" horiz-adv-x="1112" d="M102 905v148l134 -62q20 28 57 47t82 19q72 0 112.5 -47t40.5 -123v-66q0 -44 -20.5 -83t-50 -67t-59 -54.5t-50 -55.5t-20.5 -59v-156q27 -90 104.5 -156.5t159.5 -66.5q129 0 192.5 65.5t63.5 202.5v656h174v-654q0 -194 -99 -300.5t-282 -106.5q-102 0 -182.5 39 t-128.5 108v-133h-176v502q0 40 22 78.5t54 69t63.5 59.5t53.5 59.5t22 58.5v45q0 20 -14.5 33t-37.5 13q-52 0 -75 -64z" />
<glyph unicode="&#xe07;" horiz-adv-x="1042" d="M25 1047h182l246 -906h57q114 0 196 117t82 299q0 354 -219 354q-53 0 -108 -22l-6 151q67 21 133 21q169 0 273 -135t104 -369q0 -127 -36.5 -232.5t-100 -176t-150 -109.5t-186.5 -39h-181z" />
<glyph unicode="&#xe08;" horiz-adv-x="1040" d="M66 901q171 168 403 168q235 0 364.5 -138.5t129.5 -391.5q0 -239 -128.5 -389t-332.5 -150h-148l-90 381q-16 65 -71 65h-58v154h98q65 0 110.5 -35.5t66.5 -99.5l79 -326h27q115 0 193.5 107t78.5 293q0 205 -78 296t-241 91q-97 0 -185.5 -44t-144.5 -108z" />
<glyph unicode="&#xe09;" horiz-adv-x="1071" d="M61 446v154h115q63 0 103 -44t40 -110v-124q0 -95 50.5 -147t148.5 -52q96 0 178.5 66.5t110.5 162.5v238q0 161 -79.5 248.5t-227.5 87.5q-98 0 -198 -45.5t-163 -106.5l-73 127q79 78 191 123t241 45q229 0 356 -122.5t127 -336.5v-610h-174v131q-39 -63 -118 -104 t-179 -41q-172 0 -266 83.5t-94 229.5v107q0 40 -35 40h-54z" />
<glyph unicode="&#xe0a;" horiz-adv-x="993" d="M90 336v166q0 40 20.5 78t50 67.5t58.5 57t49.5 56.5t20.5 56v31q0 26 -10 36.5t-35 10.5h-152v152h191q86 0 133 -47.5t47 -122.5v-58q0 -44 -20.5 -83t-49.5 -67t-58.5 -54t-50 -55t-20.5 -58v-140q0 -121 57.5 -180t178.5 -59q113 0 169 55t56 189v180 q0 54 -34.5 90.5t-84.5 36.5h-26l-23 67l174 306h189l-189 -295q75 -15 121.5 -79.5t46.5 -156.5v-147q0 -186 -99 -284.5t-300 -98.5q-199 0 -304.5 96.5t-105.5 253.5z" />
<glyph unicode="&#xe0b;" horiz-adv-x="1007" d="M51 905v148l133 -62q20 28 57.5 47t82.5 19q72 0 112.5 -47t40.5 -123v-66q0 -44 -20.5 -83t-50.5 -67t-59.5 -54.5t-50 -55.5t-20.5 -59v-140q0 -121 58.5 -180t179.5 -59q113 0 169 55t56 189v180q0 54 -34 90.5t-84 36.5h-27l-23 67l174 306h189l-189 -295 q75 -15 121.5 -79.5t46.5 -156.5v-147q0 -186 -99 -284.5t-300 -98.5q-199 0 -305.5 96.5t-106.5 253.5v166q0 40 22 78.5t54 69t63.5 59.5t53.5 59.5t22 58.5v45q0 20 -14 33t-37 13q-53 0 -76 -64z" />
<glyph unicode="&#xe0c;" horiz-adv-x="1695" d="M78 770q39 122 167.5 210.5t295.5 88.5q187 0 308.5 -106.5t121.5 -266.5v-352q21 -96 96 -158.5t160 -62.5q108 0 156.5 60t48.5 192v672h174v-672q0 -189 -88 -289t-252 -100q-196 0 -295 141v-127h-174v682q0 118 -67 184t-187 66q-101 0 -177 -44.5t-116 -117.5 l115 -137q-42 -28 -60 -65.5t-18 -96.5v-295q0 -39 37 -39h73v-137h-139q-64 0 -104.5 46t-40.5 116v282q0 55 22.5 109.5t59.5 79.5z" />
<glyph unicode="&#xe0d;" horiz-adv-x="1695" d="M78 770q39 122 167.5 210.5t295.5 88.5q187 0 308.5 -106.5t121.5 -266.5v-309q0 -105 58.5 -168t152.5 -63q87 0 161 64.5t89 148.5v678h174v-926q0 -198 -117 -312t-324 -114q-152 0 -276 53l20 143q127 -53 252 -53t198 63.5t73 180.5v82q-31 -62 -107 -107t-166 -45 q-167 0 -264.5 94.5t-97.5 255.5v320q0 118 -67 184t-187 66q-101 0 -177 -44.5t-116 -117.5l115 -137q-42 -28 -60 -65.5t-18 -96.5v-295q0 -39 37 -39h73v-137h-139q-64 0 -104.5 46t-40.5 116v282q0 55 22.5 109.5t59.5 79.5z" />
<glyph unicode="&#xe0e;" horiz-adv-x="1112" d="M55 0v137h64q37 0 37 39v268q0 55 21.5 109.5t58.5 79.5l-117 137q39 122 167.5 210.5t295.5 88.5q189 0 314.5 -108t125.5 -271v-1100h-213q-110 103 -244 103q-88 0 -150.5 -24.5t-127.5 -78.5l-43 134q126 112 301 112q77 0 162 -36.5t141 -84.5v967 q0 117 -72.5 183.5t-193.5 66.5q-100 0 -174.5 -44t-114.5 -118l115 -137q-42 -28 -60 -65.5t-18 -96.5v-319q0 -64 -40.5 -108t-99.5 -44h-135z" />
<glyph unicode="&#xe0f;" horiz-adv-x="1112" d="M55 0v137h64q37 0 37 39v268q0 55 21.5 109.5t58.5 79.5l-117 137q39 122 167.5 210.5t295.5 88.5q189 0 314.5 -108t125.5 -271v-1100h-166l-223 134q-29 -64 -94.5 -105t-139.5 -41q-132 0 -223 60l33 135q39 -25 90 -41.5t92 -16.5q77 0 136.5 52t74.5 131l246 -148 v932q0 117 -72.5 183.5t-193.5 66.5q-100 0 -174.5 -44t-114.5 -118l115 -137q-42 -28 -60 -65.5t-18 -96.5v-319q0 -64 -40.5 -108t-99.5 -44h-135z" />
<glyph unicode="&#xe10;" horiz-adv-x="1056" d="M63 901q171 168 404 168q171 0 262 -59l117 127h201l-209 -219q60 -57 91.5 -159t31.5 -220q0 -239 -128.5 -389t-332.5 -150h-148l-90 381q-16 65 -72 65h-57v154h98q65 0 110.5 -35.5t66.5 -99.5l79 -326h27q115 0 193.5 107t78.5 293q0 205 -78 296t-241 91 q-101 0 -187 -44t-143 -110zM133 -266h131q118 0 195 90q80 -90 188 -90h84v143h170v-287h-246q-62 0 -114 26t-82 65q-24 -38 -82 -64.5t-121 -26.5h-123v144z" />
<glyph unicode="&#xe11;" horiz-adv-x="1122" d="M43 905v148l125 -62q20 28 57 47t82 19q61 0 97 -41.5t36 -106.5q42 59 115 106.5t156 47.5q154 0 237.5 -90t83.5 -268v-705h-174v723q0 96 -41.5 146.5t-105.5 50.5q-76 0 -148 -51.5t-119.5 -126t-76.5 -155t-29 -141.5v-446h-174v436q0 73 21 141t46.5 108.5 t46.5 81.5t21 67v24q0 27 -13.5 43.5t-35.5 16.5q-53 0 -76 -64z" />
<glyph unicode="&#xe12;" horiz-adv-x="1796" d="M100 524q0 234 115.5 382.5t312.5 168.5l117 -119q121 119 123 119q141 -19 224 -112.5t83 -231.5v-409q39 -91 109 -144t147 -53q110 0 155.5 65.5t45.5 202.5v654h174v-656q0 -194 -84 -299.5t-252 -105.5q-99 0 -166.5 32t-122.5 101v-119h-180v741q0 77 -33 125 t-96 60l-125 -119q-131 119 -133 119q-110 -25 -175 -133t-65 -269q0 -96 28.5 -173.5t72.5 -121t90 -66t88 -22.5q76 0 137 23v-144q-56 -26 -153 -26q-80 0 -157 36t-140 101t-101.5 167.5t-38.5 225.5z" />
<glyph unicode="&#xe13;" horiz-adv-x="1699" d="M78 770q39 122 167.5 210.5t295.5 88.5q187 0 308.5 -106.5t121.5 -266.5v-297q0 -276 231 -276q82 0 144.5 63t89.5 166v695h174v-1047h-176v129q-54 -75 -120 -109t-165 -34q-173 0 -262.5 107t-89.5 306v283q0 118 -67 184t-187 66q-101 0 -177 -44.5t-116 -117.5 l115 -137q-42 -28 -60 -65.5t-18 -96.5v-295q0 -39 37 -39h73v-137h-139q-64 0 -104.5 46t-40.5 116v282q0 55 22.5 109.5t59.5 79.5z" />
<glyph unicode="&#xe14;" horiz-adv-x="1153" d="M76 512q0 156 61.5 282t178 200.5t268.5 74.5q220 0 349.5 -125.5t129.5 -312.5v-631h-174v633q0 130 -84 210.5t-221 80.5q-151 0 -241.5 -109.5t-90.5 -302.5q0 -102 25 -178t65.5 -116t82.5 -58.5t85 -18.5q76 0 137 23v-144q-56 -26 -153 -26q-81 0 -154 31.5 t-133 92.5t-95.5 163t-35.5 231z" />
<glyph unicode="&#xe15;" horiz-adv-x="1183" d="M76 524q0 234 115.5 382.5t312.5 168.5l143 -137q137 137 139 137q141 -19 224.5 -112.5t83.5 -231.5v-731h-174v741q0 77 -33 125t-96 60l-144 -140q-156 140 -158 140q-110 -25 -174.5 -132.5t-64.5 -269.5q0 -96 28.5 -173.5t72 -121t89.5 -66t88 -22.5q77 0 138 23 v-144q-56 -26 -154 -26q-80 0 -156.5 36t-139.5 101t-101.5 167.5t-38.5 225.5z" />
<glyph unicode="&#xe16;" horiz-adv-x="1073" d="M78 770q39 121 171 210t300 89q188 0 311 -107t123 -266v-696h-174v682q0 118 -68.5 184t-189.5 66q-102 0 -182 -44.5t-119 -117.5l115 -137q-42 -28 -60 -65.5t-18 -96.5v-295q0 -39 37 -39h73v-137h-139q-64 0 -104.5 46t-40.5 116v282q0 55 22.5 109.5t59.5 79.5z " />
<glyph unicode="&#xe17;" horiz-adv-x="1067" d="M90 0v1047h174v-146q121 168 342 168q178 0 274.5 -100.5t96.5 -288.5v-680h-174v684q0 121 -58.5 180.5t-164.5 59.5q-217 0 -316 -219v-705h-174z" />
<glyph unicode="&#xe18;" horiz-adv-x="1003" d="M76 344v82h166v-82q0 -114 63 -167.5t201 -53.5q142 0 201 47t59 160v59q0 47 -29.5 79.5t-77.5 35.5l-340 26q-109 9 -176 79.5t-67 178.5q0 124 108 202.5t295 78.5q231 0 400 -86l-25 -152q-63 40 -166.5 67.5t-187.5 27.5q-134 0 -198 -36t-64 -99q0 -51 28.5 -82.5 t67.5 -34.5l375 -35q98 -9 162.5 -78.5t64.5 -171.5v-59q0 -182 -101.5 -263t-328.5 -81q-224 0 -327 87t-103 271z" />
<glyph unicode="&#xe19;" horiz-adv-x="1062" d="M90 399v648h174v-619q0 -305 268 -305q85 0 163 65t104 164v695h174v-1047h-176v129q-102 -143 -318 -143q-177 0 -283 109.5t-106 303.5z" />
<glyph unicode="&#xe1a;" horiz-adv-x="1085" d="M90 385v662h174v-662q0 -120 76.5 -191t202.5 -71t202 70.5t76 191.5v662h174v-662q0 -191 -121.5 -295t-330.5 -104t-331 104t-122 295z" />
<glyph unicode="&#xe1b;" horiz-adv-x="1085" d="M90 385v662h174v-662q0 -120 76.5 -191t202.5 -71t202 70.5t76 191.5v1020h174v-1020q0 -191 -121.5 -295t-330.5 -104t-331 104t-122 295z" />
<glyph unicode="&#xe1c;" horiz-adv-x="1171" d="M90 0v877q0 71 48.5 120.5t121.5 49.5h96v-152h-41q-24 0 -39.5 -14t-15.5 -41v-434q0 -34 -2 -72.5t-4 -59.5l-2 -22l29 86l274 457h61l277 -461l27 -103q-9 91 -9 183v633h170v-1047h-149l-346 565l-346 -565h-150z" />
<glyph unicode="&#xe1d;" horiz-adv-x="1171" d="M90 0v877q0 71 48.5 120.5t121.5 49.5h96v-152h-41q-24 0 -39.5 -14t-15.5 -41v-434q0 -34 -2 -72.5t-4 -59.5l-2 -22l29 86l274 457h61l277 -461l27 -103q-9 91 -9 183v991h170v-1405h-149l-346 565l-346 -565h-150z" />
<glyph unicode="&#xe1e;" horiz-adv-x="1249" d="M35 1047h180l123 -717l4 -78q6 64 12 78l234 665h74l233 -665q3 -6 6 -25.5t5 -36.5l1 -16q0 60 4 78l123 717h180l-208 -1047h-158l-223 635l-224 -635h-157z" />
<glyph unicode="&#xe1f;" horiz-adv-x="1259" d="M35 1047h180l123 -717l4 -78q6 64 12 78l234 665h74l233 -665q3 -6 6 -25.5t5 -36.5l1 -16q0 60 4 78l187 1075h180l-272 -1405h-158l-223 635l-224 -635h-157z" />
<glyph unicode="&#xe20;" horiz-adv-x="1112" d="M55 0v137h64q37 0 37 39v268q0 55 21.5 109.5t58.5 79.5l-117 137q39 122 167.5 210.5t295.5 88.5q189 0 314.5 -108t125.5 -271v-690h-174v682q0 117 -72.5 183.5t-193.5 66.5q-100 0 -174.5 -44t-114.5 -118l115 -137q-42 -28 -60 -65.5t-18 -96.5v-319 q0 -64 -40.5 -108t-99.5 -44h-135z" />
<glyph unicode="&#xe21;" horiz-adv-x="1064" d="M90 0v1047h174v-711q40 -85 126.5 -148t162.5 -63q248 0 248 268v654h174v-656q0 -190 -101 -297.5t-282 -107.5q-99 0 -183 39t-139 108v-133h-180z" />
<glyph unicode="&#xe22;" horiz-adv-x="1046" d="M90 319q0 92 46 160t126 96q-75 20 -123.5 81t-48.5 159q0 104 68 171t172 67q82 0 153 -23l-18 -145q-45 18 -96 18q-52 0 -82.5 -30.5t-30.5 -86.5q0 -63 48 -100t112 -37h176l14 -143h-168q-80 0 -131 -48.5t-51 -127.5q0 -100 75.5 -153.5t200.5 -53.5 q123 0 186.5 69t63.5 201v654h174v-631q0 -207 -103.5 -318.5t-311.5 -111.5q-222 0 -336.5 85.5t-114.5 247.5z" />
<glyph unicode="&#xe23;" horiz-adv-x="911" d="M76 784q0 123 99 204t257 81q99 0 194 -25t156 -67l-26 -148q-59 42 -145.5 69.5t-157.5 27.5q-103 0 -155 -37t-52 -103q0 -41 33 -72t86 -52t117 -40.5t128 -45t117 -58t86 -86.5t33 -125q0 -148 -102.5 -234.5t-301.5 -86.5q-212 0 -352 82l23 155q66 -38 156 -66 t149 -28q132 0 193 45.5t61 116.5q0 47 -33 81.5t-85.5 56t-116 41t-127 44t-116 56.5t-85.5 86.5t-33 127.5z" />
<glyph unicode="&#xe24;" horiz-adv-x="1073" d="M78 770q39 121 171 210t300 89q188 0 311 -107t123 -266v-1106h-174v1092q0 118 -68.5 184t-189.5 66q-102 0 -182 -44.5t-119 -117.5l115 -137q-42 -28 -60 -65.5t-18 -96.5v-295q0 -39 37 -39h73v-137h-139q-64 0 -104.5 46t-40.5 116v282q0 55 22.5 109.5t59.5 79.5z " />
<glyph unicode="&#xe25;" horiz-adv-x="1034" d="M61 291q0 155 120 248.5t345 93.5h244v63q0 111 -62.5 171.5t-207.5 60.5q-97 0 -192 -44t-158 -106l-72 123q80 78 190.5 123t239.5 45q211 0 323.5 -106t112.5 -301v-662h-174v487h-262q-130 0 -204.5 -54t-74.5 -142q0 -72 46.5 -116t130.5 -44q64 0 129 21l6 -146 q-78 -20 -152 -20q-147 0 -237.5 88.5t-90.5 216.5z" />
<glyph unicode="&#xe26;" horiz-adv-x="1112" d="M55 0v137h64q37 0 37 39v268q0 55 21.5 109.5t58.5 79.5l-117 137q39 122 167.5 210.5t295.5 88.5q189 0 314.5 -108t125.5 -271v-1100h-174v1092q0 117 -72.5 183.5t-193.5 66.5q-100 0 -174.5 -44t-114.5 -118l115 -137q-42 -28 -60 -65.5t-18 -96.5v-319 q0 -64 -40.5 -108t-99.5 -44h-135z" />
<glyph unicode="&#xe27;" horiz-adv-x="985" d="M59 958q182 113 396 113q201 0 325.5 -147.5t124.5 -399.5t-131.5 -396t-351.5 -144q-221 0 -361 98l39 141q65 -39 153 -65.5t153 -26.5q162 0 243.5 95t81.5 300q0 189 -87 291.5t-220 102.5q-80 0 -167.5 -29t-160.5 -80z" />
<glyph unicode="&#xe28;" horiz-adv-x="1077" d="M90 0v690q0 170 121.5 274.5t325.5 104.5q137 0 233 -55l100 123h187l-166 -207q92 -89 92 -240v-690h-174v692q0 116 -70 178t-202 62q-127 0 -200 -63t-73 -177v-229q16 41 63.5 71.5t108.5 30.5h166v-153h-172q-77 0 -121.5 -50.5t-44.5 -125.5v-236h-174z" />
<glyph unicode="&#xe29;" horiz-adv-x="1146" d="M90 385v662h174v-662q0 -131 75.5 -196.5t205.5 -65.5t205 65.5t75 196.5v139h-227v154h227v369h174v-369h148l-39 -154h-109v-139q0 -190 -122.5 -294.5t-331.5 -104.5t-332 104.5t-123 294.5z" />
<glyph unicode="&#xe2a;" horiz-adv-x="1062" d="M61 291q0 155 120 248.5t345 93.5h244v63q0 111 -62.5 171.5t-207.5 60.5q-97 0 -192 -44t-158 -106l-72 123q80 78 190.5 123t239.5 45q150 0 252 -63l106 131h187l-187 -222q78 -89 78 -253v-662h-174v487h-262q-130 0 -204.5 -54t-74.5 -142q0 -72 46.5 -116 t130.5 -44q64 0 129 21l6 -146q-78 -20 -152 -20q-147 0 -237.5 88.5t-90.5 216.5z" />
<glyph unicode="&#xe2b;" horiz-adv-x="1019" d="M90 0v1047h174v-406l461 406h236l-363 -304q86 -32 148 -102t90 -154l163 -487h-188l-154 475q-22 65 -69 113t-105 61l-219 -192v-457h-174z" />
<glyph unicode="&#xe2c;" horiz-adv-x="1171" d="M90 0v1047h170v-641q0 -34 -2 -72.5t-4 -59.5l-2 -22l29 86l274 457h61l277 -461l27 -103q-9 91 -9 183v426q0 63 -39.5 101t-105.5 38h-37l-22 68l200 358h189l-203 -348q95 -20 141.5 -87t46.5 -171v-799h-149l-346 565l-346 -565h-150z" />
<glyph unicode="&#xe2d;" horiz-adv-x="1054" d="M82 342v102q0 78 49 123t129 45h180v-151h-157q-37 0 -37 -39v-86q0 -209 268 -209q152 0 222.5 93.5t70.5 307.5q0 193 -75.5 293.5t-225.5 100.5q-97 0 -191 -43.5t-157 -104.5l-74 127q171 168 422 168q231 0 353 -145t122 -402q0 -264 -118 -400t-345 -136 q-218 0 -327 95.5t-109 260.5z" />
<glyph unicode="&#xe2e;" horiz-adv-x="1054" d="M82 342v102q0 78 49 123t129 45h180v-151h-157q-37 0 -37 -39v-86q0 -209 268 -209q152 0 222.5 93.5t70.5 307.5q0 193 -75.5 293.5t-225.5 100.5q-97 0 -191 -43.5t-157 -104.5l-74 127q171 168 422 168q136 0 239 -53l99 121h190l-174 -217q121 -142 121 -398 q0 -264 -118 -400t-345 -136q-218 0 -327 95.5t-109 260.5z" />
<glyph unicode="&#xe2f;" horiz-adv-x="987" d="M82 963v84h170v-70q0 -99 60 -158t161 -59q108 0 182 77.5t74 184.5v25h168v-1047h-174v780q-37 -77 -112 -117t-165 -40q-170 0 -267 93t-97 247z" />
<glyph unicode="&#xe30;" horiz-adv-x="530" d="M82 281v110h174v-74q0 -13 10 -21.5t25 -8.5h158v-137h-232q-53 0 -94 38t-41 93zM82 807v111h174v-74q0 -13 10 -22t25 -9h158v-137h-232q-53 0 -94 38t-41 93z" />
<glyph unicode="&#xe31;" horiz-adv-x="0" d="M-561 1333v101h174v-82q0 -13 10 -22t25 -9h426v-135h-488q-61 0 -104 42t-43 105z" />
<glyph unicode="&#xe32;" horiz-adv-x="888" d="M27 905q168 164 389 164q180 0 281.5 -106.5t101.5 -294.5v-668h-174v682q0 119 -59 180.5t-167 61.5q-92 0 -174 -38.5t-141 -101.5z" />
<glyph unicode="&#xe33;" horiz-adv-x="888" d="M-362 1339q0 75 52.5 128t127.5 53t127.5 -53t52.5 -128t-52.5 -127.5t-127.5 -52.5t-127.5 52.5t-52.5 127.5zM-256 1341q0 -32 21.5 -53.5t52.5 -21.5t52 21.5t21 53.5q0 31 -21 52.5t-52 21.5t-52.5 -21.5t-21.5 -52.5zM27 905q168 164 389 164q180 0 281.5 -106.5 t101.5 -294.5v-668h-174v682q0 119 -59 180.5t-167 61.5q-92 0 -174 -38.5t-141 -101.5z" />
<glyph unicode="&#xe34;" horiz-adv-x="0" d="M-891 1186v147h801v-147h-801z" />
<glyph unicode="&#xe35;" horiz-adv-x="0" d="M-891 1186v147h639v144h162v-291h-801z" />
<glyph unicode="&#xe36;" horiz-adv-x="0" d="M-891 1186v147h545q-4 16 -4 31q0 68 48 115t120 47t122 -47t50 -115q0 -74 -52.5 -126t-132.5 -52h-696zM-240 1364q0 -26 18 -43.5t44 -17.5t43.5 17.5t17.5 43.5t-17.5 43.5t-43.5 17.5t-44 -17.5t-18 -43.5z" />
<glyph unicode="&#xe37;" horiz-adv-x="0" d="M-891 1186v147h432v131h137v-131h86v131h146v-278h-801z" />
<glyph unicode="&#xe38;" horiz-adv-x="0" d="M-373 -119h170q50 0 81.5 -33.5t31.5 -80.5v-281h-154v240q0 26 -24 26h-105v129z" />
<glyph unicode="&#xe39;" horiz-adv-x="0" d="M-684 -119h238v-200q0 -48 26.5 -74.5t75.5 -26.5q104 0 104 109v192h150v-192q0 -102 -67 -161.5t-187 -59.5q-113 0 -177.5 58.5t-64.5 154.5v73h-98v127z" />
<glyph unicode="&#xe3a;" horiz-adv-x="0" d="M-295 -219q0 46 34.5 79.5t80.5 33.5q47 0 80.5 -33.5t33.5 -79.5q0 -45 -33.5 -78t-80.5 -33q-46 0 -80.5 33.5t-34.5 77.5z" />
<glyph unicode="&#xe3f;" horiz-adv-x="1089" d="M147 0v1243h293v193h103v-193q379 -23 379 -313q0 -231 -256 -295v-4q128 -11 207 -91t79 -208q0 -72 -21.5 -127.5t-57.5 -92t-89 -60.5t-111.5 -35.5t-129.5 -14.5v-190h-103v188h-293zM326 145h114v422h-114v-422zM326 713h98h16v385h-114v-385zM543 150 q104 10 162.5 55.5t58.5 142.5q0 104 -60 152.5t-161 60.5v-411zM543 717q97 12 148.5 55t51.5 139q0 48 -17.5 84.5t-47 57t-63 31t-72.5 12.5v-379z" />
<glyph unicode="&#xe40;" horiz-adv-x="387" d="M113 0v1047h174v-1047h-174z" />
<glyph unicode="&#xe41;" horiz-adv-x="770" d="M113 0v1047h174v-1047h-174zM492 0v1047h174v-1047h-174z" />
<glyph unicode="&#xe42;" horiz-adv-x="514" d="M-4 1554q66 95 172.5 153t224.5 58q88 0 177.5 -24t156.5 -62l-12 -149q-69 41 -148.5 66.5t-140.5 25.5q-87 0 -142 -16.5t-106 -55.5q77 -46 134 -151t57 -228v-1171h-174v1188q0 128 -43 207.5t-134 122.5l-8 13q-14 22 -14 23z" />
<glyph unicode="&#xe43;" horiz-adv-x="479" d="M-68 1599q54 83 137 128t181 45q148 0 227.5 -61.5t79.5 -156.5q0 -48 -20.5 -88.5t-50.5 -73.5t-59.5 -70t-50 -94.5t-20.5 -129.5v-1098h-174v1137q0 58 21.5 109.5t52 87.5t60.5 68t51.5 66.5t21.5 67.5q0 47 -34 75.5t-107 28.5q-64 0 -125.5 -38t-102.5 -103z" />
<glyph unicode="&#xe44;" horiz-adv-x="516" d="M-113 1583v125h668v-115q-89 -39 -127.5 -112.5t-38.5 -198.5v-1282h-174v1237q0 117 43 212t109 134h-480z" />
<glyph unicode="&#xe45;" horiz-adv-x="888" d="M27 905q168 164 389 164q180 0 281.5 -106.5t101.5 -294.5v-1078h-174v1092q0 119 -59 180.5t-167 61.5q-92 0 -174 -38.5t-141 -101.5z" />
<glyph unicode="&#xe46;" horiz-adv-x="1019" d="M92 815q0 106 73 170.5t183 83.5l152 -115l149 115q124 -7 195 -94.5t71 -208.5v-1176h-174v1188q0 146 -94 164l-147 -115l-156 115q-117 -28 -117 -127q0 -53 31 -83t84 -30q29 0 53 9l11 -113q-32 -12 -89 -12q-92 0 -158.5 63.5t-66.5 165.5z" />
<glyph unicode="&#xe47;" horiz-adv-x="0" d="M-825 1364q0 82 59 136t176 54h203q82 0 82 68v49h158v-55q0 -79 -55.5 -131.5t-147.5 -52.5h-236q-42 0 -61 -17.5t-19 -44.5q0 -57 76 -57q94 0 131 51q47 -51 117 -51h174v-135h-154q-40 0 -76.5 24.5t-62.5 65.5q-46 -90 -180 -90q-82 0 -133 52t-51 134z" />
<glyph unicode="&#xe48;" horiz-adv-x="0" d="M-252 1571v231h162v-231h-162z" />
<glyph unicode="&#xe49;" horiz-adv-x="0" d="M-512 1716v131h164q48 0 76 -22t28 -64v-26q0 -15 10 -23t25 -8h279v-133h-357q-41 0 -67.5 23.5t-26.5 60.5v31q0 30 -35 30h-96z" />
<glyph unicode="&#xe4a;" horiz-adv-x="0" d="M-580 1665q0 60 44.5 107.5t123.5 54.5l111 -105l98 107q77 -3 119.5 -47t42.5 -127q66 31 66 149q0 19 -3.5 42t-6.5 36l-3 14h148q8 -30 10 -81q0 -103 -72 -173.5t-172 -70.5h-82l-16 31q18 18 18 47q0 26 -16 42t-41 19l-90 -82l-94 78q-47 -15 -47 -57q0 -14 14 -47 l-18 -33h-117q-17 47 -17 96z" />
<glyph unicode="&#xe4b;" horiz-adv-x="0" d="M-389 1663v111l133 -5l-4 99h158l-4 -99l133 5v-111l-133 4l4 -96h-158l4 96z" />
<glyph unicode="&#xe4c;" horiz-adv-x="0" d="M-356 1421v74q0 68 49 114t119 46h213v-135h-138q-67 0 -67 -62v-37h-176z" />
<glyph unicode="&#xe4d;" horiz-adv-x="0" d="M-362 1339q0 75 52.5 128t127.5 53t127.5 -53t52.5 -128t-52.5 -127.5t-127.5 -52.5t-127.5 52.5t-52.5 127.5zM-256 1341q0 -32 21.5 -53.5t52.5 -21.5t52 21.5t21 53.5q0 31 -21 52.5t-52 21.5t-52.5 -21.5t-21.5 -52.5z" />
<glyph unicode="&#xe4e;" horiz-adv-x="0" />
<glyph unicode="&#xe4f;" horiz-adv-x="1052" d="M135 410q0 164 116.5 280.5t280.5 116.5t281 -116.5t117 -280.5q0 -166 -117 -283t-281 -117t-280.5 117t-116.5 283zM197 410q0 -140 98 -239t237 -99t237.5 99t98.5 239q0 138 -98.5 236.5t-237.5 98.5t-237 -98.5t-98 -236.5zM301 408q0 96 67.5 163.5t161.5 67.5 q96 0 164 -67.5t68 -161.5q0 -96 -68 -164t-162 -68q-96 0 -163.5 68t-67.5 162zM360 408q0 -70 50 -120t122 -50q69 0 118.5 50t49.5 122q0 69 -50 118.5t-120 49.5q-69 0 -119.5 -50t-50.5 -120z" />
<glyph unicode="&#xe50;" horiz-adv-x="1079" d="M70 408q0 205 131.5 313t339.5 108q100 0 184 -26t148.5 -77t100.5 -132.5t36 -185.5q0 -138 -63.5 -235t-167.5 -142t-238 -45q-208 0 -339.5 108.5t-131.5 313.5zM236 408q0 -132 88 -208.5t217 -76.5q127 0 215 77t88 208t-88 207.5t-215 76.5q-129 0 -217 -76.5 t-88 -207.5z" />
<glyph unicode="&#xe51;" horiz-adv-x="1062" d="M59 418q0 181 128.5 291t330.5 110q222 0 349.5 -128t127.5 -347q0 -243 -137 -386.5t-369 -143.5h-40l16 135h65q126 0 213.5 105t87.5 292q0 153 -84 243.5t-231 90.5q-130 0 -213.5 -73t-83.5 -189q0 -109 58 -165t141 -56q91 0 157 34l11 -137q-75 -41 -168 -41 q-151 0 -255 96.5t-104 268.5z" />
<glyph unicode="&#xe52;" horiz-adv-x="1198" d="M86 346v662h164v-662q0 -94 54 -148.5t134 -54.5h328q73 0 127.5 59.5t54.5 145.5v156q0 76 -29 113t-90 42l-116 -112l-127 112q-47 -6 -69.5 -36.5t-22.5 -73.5q0 -103 118 -125l-47 -123q-111 20 -168 83.5t-57 164.5q0 106 65 176.5t175 83.5l133 -131l116 131 q124 -6 203.5 -89t79.5 -220v-152q0 -140 -102 -244t-244 -104h-336q-156 0 -250 98t-94 248z" />
<glyph unicode="&#xe53;" horiz-adv-x="1097" d="M70 395q0 159 88 265.5t231 148.5l178 -174l148 174q129 -9 211 -95.5t82 -228.5v-485h-164v489q0 76 -33.5 116.5t-87.5 43.5l-156 -184l-178 178q-76 -34 -116 -98.5t-40 -151.5q0 -128 72.5 -202t171.5 -74q37 0 79.5 10.5t68.5 24.5l14 -132q-72 -34 -180 -34 q-163 0 -276 115.5t-113 293.5z" />
<glyph unicode="&#xe54;" horiz-adv-x="1087" d="M70 373q0 199 130.5 315.5t329.5 116.5h154q180 0 180 164v39h172v-41q0 -138 -83.5 -219.5t-229.5 -81.5h-191q-136 0 -215 -74.5t-79 -214.5q0 -126 60.5 -190t158.5 -64q85 0 143 39q-41 47 -41 133q0 102 63 161.5t156 59.5h129l-28 -139h-72q-39 0 -64.5 -28 t-25.5 -68q0 -71 52 -107.5t146 -36.5h99l-21 -137h-94q-156 0 -231 66q-32 -35 -90 -57.5t-129 -22.5q-174 0 -276.5 105.5t-102.5 281.5z" />
<glyph unicode="&#xe55;" horiz-adv-x="1087" d="M70 373q0 175 100 289t266 133q-22 14 -35.5 43.5t-13.5 54.5q0 69 45.5 111.5t114.5 42.5q70 0 117 -43.5t47 -110.5q0 -22 -14 -50.5t-29 -37.5h24q95 0 133.5 42t38.5 122v39h172v-41q0 -136 -81 -216.5t-232 -80.5h-205q-134 0 -207 -75.5t-73 -217.5 q0 -126 60.5 -190t158.5 -64q85 0 143 39q-41 47 -41 133q0 102 63 161.5t156 59.5h129l-28 -139h-72q-39 0 -64.5 -28t-25.5 -68q0 -71 52 -107.5t146 -36.5h99l-21 -137h-94q-156 0 -231 66q-32 -35 -90 -57.5t-129 -22.5q-174 0 -276.5 105.5t-102.5 281.5zM479 893 q0 -29 20.5 -49.5t49.5 -20.5q27 0 47 20.5t20 49.5q0 27 -20 47.5t-47 20.5q-29 0 -49.5 -20t-20.5 -48z" />
<glyph unicode="&#xe56;" horiz-adv-x="1077" d="M43 1008h162l61 -301q50 61 132.5 97t179.5 36q192 0 315 -123.5t123 -308.5q0 -85 -27.5 -160.5t-78.5 -134t-131.5 -93t-180.5 -34.5q-176 0 -281.5 86t-105.5 221q0 46 23.5 92.5t58.5 71.5l125 -88q-45 -36 -45 -99q0 -62 56 -107.5t144 -45.5q128 0 204.5 83.5 t76.5 207.5q0 130 -80 213.5t-219 83.5q-182 0 -295 -158h-115z" />
<glyph unicode="&#xe57;" horiz-adv-x="1398" d="M70 395q0 159 88 265.5t231 148.5l164 -186l145 186q129 -9 211 -95.5t82 -228.5v-362h29q57 0 91 44t34 120v721h164v-699q0 -135 -82.5 -222t-208.5 -87h-191v489q0 76 -33 116.5t-87 43.5l-154 -190l-164 184q-76 -34 -116 -98.5t-40 -151.5q0 -128 72.5 -202 t171.5 -74q37 0 79.5 10.5t68.5 24.5l14 -132q-72 -34 -180 -34q-163 0 -276 115.5t-113 293.5z" />
<glyph unicode="&#xe58;" horiz-adv-x="1050" d="M82 268v187q0 145 105 247.5t272 102.5h151q102 0 143.5 41t41.5 123v39h166v-41q0 -139 -84 -222t-234 -83h-174q-107 0 -163 -59t-56 -157v-174q0 -58 36 -97.5t103 -39.5l164 176l174 -178q47 12 77 56t30 98q0 61 -42 102.5t-100 44.5l51 115q104 -7 172 -84.5 t68 -181.5q0 -118 -83.5 -204.5t-188.5 -86.5l-158 155l-137 -155q-144 0 -239 73.5t-95 202.5z" />
<glyph unicode="&#xe59;" horiz-adv-x="1093" d="M70 412q0 182 87 294.5t220 112.5q73 0 126.5 -30t80.5 -76q11 44 52.5 75t96.5 31q40 0 78 -19t59 -46l48 254h153l-82 -412h-123q-12 43 -42 68.5t-72 25.5q-32 0 -53 -24t-21 -60l209 -606h-168l-203 582q-14 40 -47.5 69t-83.5 29q-72 0 -115 -72.5t-43 -195.5 q0 -130 46.5 -212.5t105.5 -82.5q64 0 115 41l32 -117q-67 -55 -157 -55q-124 0 -211.5 119.5t-87.5 306.5z" />
<glyph unicode="&#xe5b;" horiz-adv-x="1699" d="M307 276v533q0 42 12.5 65t47.5 41l335 172q74 39 142 39q65 0 153 -43l236 -116q49 -24 49 -74q0 -59 -68 -92l-303 -154q-36 -19 -49.5 -49t-13.5 -76v-522zM901 27v489q0 32 7.5 48t29.5 28l297 151q27 15 59 15q43 0 71 -29t28 -82v-260q0 -60 -16.5 -92t-59.5 -55z " />
<glyph unicode="&#x2000;" horiz-adv-x="948" />
<glyph unicode="&#x2001;" horiz-adv-x="1896" />
<glyph unicode="&#x2002;" horiz-adv-x="948" />
<glyph unicode="&#x2003;" horiz-adv-x="1896" />
<glyph unicode="&#x2004;" horiz-adv-x="632" />
<glyph unicode="&#x2005;" horiz-adv-x="474" />
<glyph unicode="&#x2006;" horiz-adv-x="316" />
<glyph unicode="&#x2007;" horiz-adv-x="316" />
<glyph unicode="&#x2008;" horiz-adv-x="237" />
<glyph unicode="&#x2009;" horiz-adv-x="379" />
<glyph unicode="&#x200a;" horiz-adv-x="105" />
<glyph unicode="&#x2010;" horiz-adv-x="593" d="M68 412v135h458v-135h-458z" />
<glyph unicode="&#x2011;" horiz-adv-x="593" d="M68 412v135h458v-135h-458z" />
<glyph unicode="&#x2012;" horiz-adv-x="593" d="M68 412v135h458v-135h-458z" />
<glyph unicode="&#x2013;" horiz-adv-x="890" d="M0 418v123h891v-123h-891z" />
<glyph unicode="&#x2014;" horiz-adv-x="1781" d="M0 418v123h1782v-123h-1782z" />
<glyph unicode="&#x2018;" horiz-adv-x="495" d="M92 807l152 436h159l-112 -436h-199z" />
<glyph unicode="&#x2019;" horiz-adv-x="495" d="M92 807l111 436h200l-157 -436h-154z" />
<glyph unicode="&#x201a;" horiz-adv-x="495" d="M92 -238l113 437h198l-151 -437h-160z" />
<glyph unicode="&#x201c;" d="M172 807l152 436h157l-110 -436h-199zM510 807l149 436h160l-112 -436h-197z" />
<glyph unicode="&#x201d;" d="M172 807l111 436h198l-151 -436h-158zM510 807l113 436h196l-151 -436h-158z" />
<glyph unicode="&#x201e;" d="M172 -238l111 437h198l-151 -437h-158zM510 -238l113 437h196l-151 -437h-158z" />
<glyph unicode="&#x2020;" d="M119 807v125h299v311h155v-311h297v-125h-297v-807h-155v807h-299z" />
<glyph unicode="&#x2021;" d="M119 289v125h299v415h-299v125h299v289h155v-289h297v-125h-297v-415h297v-125h-297v-289h-155v289h-299z" />
<glyph unicode="&#x2022;" horiz-adv-x="890" d="M135 623q0 130 90.5 219.5t220.5 89.5t221 -89.5t91 -219.5q0 -131 -91 -222.5t-221 -91.5q-129 0 -220 91t-91 223z" />
<glyph unicode="&#x2026;" horiz-adv-x="1781" d="M199 0v199h198v-199h-198zM791 0v199h200v-199h-200zM1384 0v199h199v-199h-199z" />
<glyph unicode="&#x202f;" horiz-adv-x="379" />
<glyph unicode="&#x2030;" horiz-adv-x="1781" d="M6 909q0 61 6.5 110.5t24.5 97t47.5 79t77 51t110.5 19.5t111 -19.5t77 -51t47 -79t25 -97t7 -110.5q0 -72 -13.5 -133t-42.5 -112.5t-83 -81t-128 -29.5t-127.5 29.5t-83 81t-42.5 112t-13 133.5zM139 -39l772 1321h127l-770 -1321h-129zM162 909q0 -22 0.5 -36.5 t2.5 -41t6 -45t12 -40.5t19.5 -35.5t29.5 -23t40 -9.5q26 0 46 11.5t31.5 33t19 42.5t10 51.5t3.5 49t1 43.5q0 26 -1 44t-3.5 48.5t-10 52t-19 43t-31.5 33t-46 11.5t-46 -11.5t-31 -33t-18.5 -43t-10.5 -52.5t-3.5 -48.5t-0.5 -43.5zM639 334q0 77 11.5 136.5t39.5 111.5 t82.5 80t132.5 28t132.5 -28t82.5 -80t39.5 -111.5t11.5 -136.5q0 -73 -13 -133.5t-42.5 -112.5t-83 -81.5t-127.5 -29.5t-127.5 29.5t-83 81.5t-42.5 112.5t-13 133.5zM795 334q0 -26 0.5 -43.5t3.5 -48.5t10.5 -52.5t18.5 -43t31 -33t46 -11.5t46 11.5t31.5 33t19 43 t10 52t3.5 48.5t1 44q0 25 -1 43.5t-3.5 49t-10 51.5t-19 42.5t-31.5 33t-46 11.5q-22 0 -40 -9.5t-29.5 -23t-19.5 -35.5t-12 -40.5t-6 -45t-2.5 -41t-0.5 -36.5zM1243 334q0 77 11.5 136.5t39.5 111.5t82.5 80t132.5 28t132.5 -28t83 -80t40 -111.5t11.5 -136.5 q0 -57 -8 -107t-27.5 -97t-49 -80t-76 -53t-106.5 -20q-74 0 -127.5 29.5t-83 81.5t-42.5 112.5t-13 133.5zM1399 334q0 -26 0.5 -43.5t3.5 -48.5t10.5 -52.5t18.5 -43t31 -33t46 -11.5t46 11.5t31.5 33t19 43t10 52t3.5 48.5t1 44q0 25 -1 43.5t-3.5 49t-10 51.5t-19 42.5 t-31.5 33t-46 11.5q-22 0 -40 -9.5t-29.5 -23t-19.5 -35.5t-12 -40.5t-6 -45t-2.5 -41t-0.5 -36.5z" />
<glyph unicode="&#x2039;" horiz-adv-x="495" d="M35 479l256 361h155l-231 -361l231 -360h-155z" />
<glyph unicode="&#x203a;" horiz-adv-x="495" d="M47 119l234 360l-234 361h158l254 -361l-254 -360h-158z" />
<glyph unicode="&#x2044;" horiz-adv-x="296" d="M-301 -39l772 1321h127l-770 -1321h-129z" />
<glyph unicode="&#x205f;" horiz-adv-x="474" />
<glyph unicode="&#x20ac;" d="M10 451l25 96h133q-4 50 -4 76q0 23 4 73h-158l25 97h147q46 216 203.5 344.5t378.5 128.5q155 0 272 -47l-35 -148q-40 22 -103.5 34.5t-117.5 12.5q-152 0 -256.5 -87.5t-146.5 -237.5h567l-22 -97h-566q-4 -25 -4 -73q0 -51 4 -76h533l-21 -96h-491 q42 -150 145.5 -236t255.5 -86q131 0 223 43l11 -154q-91 -38 -248 -38q-227 0 -382.5 124.5t-201.5 346.5h-170z" />
<glyph unicode="&#x2122;" horiz-adv-x="1763" d="M96 1118v125h592v-125h-229v-616h-135v616h-228zM862 502v741h211l195 -500l190 500h209v-741h-135v567h-4l-207 -567h-111l-209 567h-4v-567h-135z" />
<glyph unicode="&#x2202;" horiz-adv-x="911" d="M59 379q0 163 96 272t259 109q170 0 286 -135q0 13 1 41t1 41q0 77 -16 153t-49.5 148.5t-96.5 117.5t-147 45q-56 0 -102.5 -20.5t-100.5 -60.5l-73 88q118 106 272 106q100 0 179.5 -39t128.5 -102t81.5 -148.5t45 -171.5t12.5 -178q0 -63 -4.5 -122.5t-16.5 -128 t-31 -126t-51.5 -112t-74.5 -92.5t-102.5 -61t-133.5 -23q-163 0 -263 116.5t-100 282.5zM190 375q0 -114 62.5 -201.5t173.5 -87.5q71 0 125 41.5t83 106.5t43.5 133t14.5 133q-47 66 -116.5 108.5t-145.5 42.5q-113 0 -176.5 -81.5t-63.5 -194.5z" />
<glyph unicode="&#x2206;" horiz-adv-x="1200" d="M23 0l497 1268h148l512 -1268h-1157zM213 129h768l-387 989z" />
<glyph unicode="&#x220f;" horiz-adv-x="1282" d="M121 -381v1782h1038v-1782h-139v1653h-760v-1653h-139z" />
<glyph unicode="&#x2211;" horiz-adv-x="1095" d="M45 -268l573 784l-548 770v115h958v-129h-778l536 -756l-569 -770h832v-127h-1004v113z" />
<glyph unicode="&#x2212;" horiz-adv-x="1069" d="M84 373v155h901v-155h-901z" />
<glyph unicode="&#x221a;" horiz-adv-x="897" d="M-16 281l200 94l269 -565l327 1591h135l-374 -1782h-135l-289 594l-82 -39z" />
<glyph unicode="&#x221e;" horiz-adv-x="1351" d="M76 449q0 120 69.5 199t188.5 79q31 0 59 -5t57.5 -20t47.5 -24t50.5 -36t42 -35.5t46 -43t41.5 -39.5q3 3 27 27.5t30 30t29 27t32 28.5t31 24.5t35 24t34 18t38 15.5t38 8t42 4q119 0 191.5 -79t72.5 -197q0 -120 -72.5 -200.5t-189.5 -80.5q-156 0 -338 195 q-15 -12 -59 -52t-65.5 -56t-60 -40.5t-76.5 -34.5t-81 -10q-117 0 -188.5 77t-71.5 196zM190 449q0 -69 40 -111.5t108 -42.5q111 0 262 151q-162 162 -266 162q-65 0 -104.5 -46.5t-39.5 -112.5zM754 446q4 -4 13 -12q36 -34 57 -51.5t56 -41.5t70 -35t72 -11q65 0 102 44 t37 110q0 71 -38 116t-107 45q-34 0 -70.5 -15t-73.5 -44t-60.5 -50t-57.5 -55z" />
<glyph unicode="&#x222b;" horiz-adv-x="987" d="M174 -287q0 25 20.5 44.5t45.5 19.5q20 0 35.5 -11.5t23.5 -25.5t17 -25.5t18 -11.5q10 0 18 8.5t13 23t9 32.5t5.5 40t3 42.5t1.5 42v36.5t-0.5 28t-0.5 15v39v883q0 18 -0.5 55.5t-1 63.5t0.5 66t4.5 68.5t11 64.5t18 61t28 51t40 42t54.5 26t70 10q53 0 96.5 -25 t43.5 -76q0 -31 -21 -49t-53 -18q-19 0 -35.5 12t-25.5 26t-20 26t-20 12q-15 0 -26 -12t-17 -33t-9 -44.5t-3.5 -51t0 -48t1.5 -39.5t1 -22l2 -70v-911v-21q0 -50 -0.5 -78t-4.5 -80.5t-12 -84.5t-24.5 -73t-40 -64t-60 -39.5t-83.5 -16.5q-46 0 -84.5 23.5t-38.5 68.5z " />
<glyph unicode="&#x2248;" horiz-adv-x="1056" d="M57 147q6 52 21.5 96.5t42 84t69 62t97.5 22.5q66 0 158.5 -32t181.5 -63.5t147 -31.5q106 0 135 133h88q-5 -71 -29 -127.5t-75.5 -94.5t-124.5 -38q-64 0 -160.5 32t-186 64.5t-138.5 32.5q-53 0 -89 -42t-44 -98h-93zM59 469q9 106 67.5 185t162.5 79 q65 0 157.5 -31.5t182 -63.5t147.5 -32q105 0 135 133h88q-6 -52 -21.5 -96t-42 -82.5t-69.5 -60t-98 -21.5q-65 0 -160.5 31.5t-184 63.5t-138.5 32q-54 0 -90.5 -41t-44.5 -96h-91z" />
<glyph unicode="&#x2260;" horiz-adv-x="1069" d="M80 203v129h317l121 225h-438v127h506l137 264l111 -57l-111 -207h262v-127h-328l-118 -225h446v-129h-512l-135 -260l-111 57l105 203h-252z" />
<glyph unicode="&#x2264;" horiz-adv-x="1069" d="M84 -53v129h905v-129h-905zM84 473v135l905 332v-137l-727 -262l727 -258v-138z" />
<glyph unicode="&#x2265;" horiz-adv-x="1069" d="M84 -53v129h905v-129h-905zM84 145v138l727 258l-727 262v137l905 -332v-135z" />
<glyph unicode="&#x25ca;" horiz-adv-x="1056" d="M158 635l305 696h129l305 -696l-305 -696h-129zM295 635l233 -561l234 561l-234 561z" />
<glyph unicode="&#x25fc;" horiz-adv-x="911" d="M0 0v911h911v-911h-911z" />
<glyph unicode="&#xf700;" horiz-adv-x="1056" d="M63 901q171 168 404 168q171 0 262 -59l117 127h201l-209 -219q60 -57 91.5 -159t31.5 -220q0 -239 -128.5 -389t-332.5 -150h-148l-90 381q-16 65 -72 65h-57v154h98q65 0 110.5 -35.5t66.5 -99.5l79 -326h27q115 0 193.5 107t78.5 293q0 205 -78 296t-241 91 q-101 0 -187 -44t-143 -110z" />
<glyph unicode="&#xf701;" horiz-adv-x="0" d="M-1001 1186v147h671v-147h-671z" />
<glyph unicode="&#xf702;" horiz-adv-x="0" d="M-1001 1186v147h507v144h164v-291h-671z" />
<glyph unicode="&#xf703;" horiz-adv-x="0" d="M-1001 1186v147h391q-4 16 -4 31q0 68 48 115t120 47t122 -47t50 -115q0 -74 -52.5 -126t-132.5 -52h-542zM-504 1364q0 -26 18 -43.5t44 -17.5t43.5 17.5t17.5 43.5t-17.5 43.5t-43.5 17.5t-44 -17.5t-18 -43.5z" />
<glyph unicode="&#xf704;" horiz-adv-x="0" d="M-1001 1186v147h303v131h137v-131h86v131h145v-278h-671z" />
<glyph unicode="&#xf705;" horiz-adv-x="0" d="M-557 1186v293h143v-293h-143z" />
<glyph unicode="&#xf706;" horiz-adv-x="0" d="M-807 1341v132h158q48 0 79 -26.5t31 -68.5v-28q0 -15 10 -23t25 -8h330v-133h-399q-41 0 -72 26.5t-31 63.5v35q0 30 -35 30h-96z" />
<glyph unicode="&#xf707;" horiz-adv-x="0" d="M-924 1282q0 60 44.5 107.5t123.5 54.5l123 -103l117 105q77 -3 119.5 -47t42.5 -127q36 17 50.5 52.5t14.5 96.5q0 19 -3 42t-6 37l-3 13h147q9 -30 11 -81q0 -103 -72 -173.5t-172 -70.5h-82l-16 31q18 18 18 47q0 26 -16 42t-41 19l-109 -86l-106 82q-47 -15 -47 -57 q0 -14 14 -47l-19 -33h-116q-17 47 -17 96z" />
<glyph unicode="&#xf708;" horiz-adv-x="0" d="M-776 1284v117l145 -4l-4 102h178l-4 -102l146 4v-117l-146 4l4 -102h-178l4 102z" />
<glyph unicode="&#xf709;" horiz-adv-x="0" d="M-739 1186v98q0 68 49 114t119 46h237v-135h-162q-67 0 -67 -62v-61h-176z" />
<glyph unicode="&#xf70a;" horiz-adv-x="0" d="M-254 1186v287h162v-287h-162z" />
<glyph unicode="&#xf70b;" horiz-adv-x="0" d="M-561 1341v132h164q48 0 76 -22.5t28 -64.5v-36q0 -15 10 -23t25 -8h330v-133h-408q-41 0 -67.5 23.5t-26.5 60.5v41q0 30 -35 30h-96z" />
<glyph unicode="&#xf70c;" horiz-adv-x="0" d="M-825 1282q0 60 44.5 107.5t123.5 54.5l122 -101l117 103q77 -3 119.5 -47t42.5 -127q66 31 66 149q0 19 -3 42t-7 37l-3 13h148q8 -30 10 -81q0 -103 -72 -173.5t-172 -70.5h-82l-16 31q18 18 18 47q0 26 -16 42t-41 19l-109 -86l-106 82q-47 -15 -47 -57q0 -14 14 -47 l-18 -33h-117q-16 44 -16 96z" />
<glyph unicode="&#xf70d;" horiz-adv-x="0" d="M-399 1284v117l145 -4l-4 102h178l-4 -102l145 4v-117l-145 4l4 -102h-178l4 102z" />
<glyph unicode="&#xf70e;" horiz-adv-x="0" d="M-434 1186v98q0 68 49 114t119 46h237v-135h-161q-68 0 -68 -62v-61h-176z" />
<glyph unicode="&#xf70f;" horiz-adv-x="1693" d="M76 770q39 121 171 210t300 89q187 0 304.5 -106.5t117.5 -266.5v-338q0 -109 59.5 -172t173.5 -63t171 56.5t57 162.5v705h174v-693q0 -174 -101 -272t-303 -98q-204 0 -304.5 101.5t-100.5 285.5v311q0 119 -63.5 184.5t-182.5 65.5q-102 0 -182 -44.5t-119 -117.5 l114 -137q-41 -28 -59 -65t-18 -97v-295q0 -39 37 -39h73v-137h-139q-64 0 -104.5 46t-40.5 116v282q0 55 22.5 109.5t59.5 79.5z" />
<glyph unicode="&#xf710;" horiz-adv-x="0" d="M-752 1333v101h174v-82q0 -13 10 -22t25 -9h566v-135h-627q-61 0 -104.5 42t-43.5 105z" />
<glyph unicode="&#xf711;" horiz-adv-x="0" d="M-662 1339q0 75 53 128t128 53t127.5 -53t52.5 -128t-52.5 -127.5t-127.5 -52.5t-128 52.5t-53 127.5zM-555 1341q0 -32 21.5 -53.5t52.5 -21.5t52 21.5t21 53.5q0 31 -21 52.5t-52 21.5t-52.5 -21.5t-21.5 -52.5z" />
<glyph unicode="&#xf712;" horiz-adv-x="0" d="M-1001 1364q0 82 59 136t176 54h203q82 0 82 68v49h157v-55q0 -79 -55.5 -131.5t-146.5 -52.5h-236q-42 0 -61 -17.5t-19 -44.5q0 -57 76 -57q94 0 131 51q47 -51 117 -51h174v-135h-154q-40 0 -76.5 24.5t-62.5 65.5q-46 -90 -180 -90q-82 0 -133 52t-51 134z" />
<glyph unicode="&#xf713;" horiz-adv-x="0" d="M-487 1571v215h153v-215h-153z" />
<glyph unicode="&#xf714;" horiz-adv-x="0" d="M-719 1716v131h164q48 0 76 -22t28 -64v-26q0 -15 10 -23t25 -8h279v-133h-357q-41 0 -67.5 23.5t-26.5 60.5v31q0 30 -35 30h-96z" />
<glyph unicode="&#xf715;" horiz-adv-x="0" d="M-752 1665q0 60 44.5 107.5t123.5 54.5l111 -105l98 107q77 -3 119.5 -47t42.5 -127q66 31 66 149q0 19 -3.5 42t-6.5 36l-3 14h148q8 -30 10 -81q0 -103 -72 -173.5t-172 -70.5h-82l-16 31q18 18 18 47q0 26 -16 42t-41 19l-90 -82l-94 78q-47 -15 -47 -57q0 -14 14 -47 l-18 -33h-117q-17 47 -17 96z" />
<glyph unicode="&#xf716;" horiz-adv-x="0" d="M-631 1663v111l133 -5l-4 99h158l-4 -99l133 5v-111l-133 4l4 -96h-158l4 96z" />
<glyph unicode="&#xf717;" horiz-adv-x="0" d="M-608 1421v74q0 68 49 114t119 46h196v-135h-121q-67 0 -67 -62v-37h-176z" />
<glyph unicode="&#xf718;" horiz-adv-x="0" d="M-373 -528h170q50 0 81.5 -34t31.5 -81v-281h-154v240q0 27 -24 27h-105v129z" />
<glyph unicode="&#xf719;" horiz-adv-x="0" d="M-684 -528h238v-201q0 -48 26.5 -74t75.5 -26q104 0 104 108v193h150v-193q0 -102 -67 -161.5t-187 -59.5q-113 0 -177.5 58.5t-64.5 154.5v74h-98v127z" />
<glyph unicode="&#xf71a;" horiz-adv-x="0" d="M-307 -637q0 46 34 79.5t80 33.5q47 0 81 -33.5t34 -79.5q0 -45 -34 -78t-81 -33q-46 0 -80 33.5t-34 77.5z" />
<glyph unicode="&#xf71b;" horiz-adv-x="1112" d="M55 0v137h64q37 0 37 39v268q0 55 21.5 109.5t58.5 79.5l-117 137q39 122 167.5 210.5t295.5 88.5q189 0 314.5 -108t125.5 -271v-1100h-213q-110 103 -244 103q-88 0 -150.5 -24.5t-127.5 -78.5l-43 134q126 112 301 112q77 0 162 -36.5t141 -84.5v967 q0 117 -72.5 183.5t-193.5 66.5q-100 0 -174.5 -44t-114.5 -118l115 -137q-42 -28 -60 -65.5t-18 -96.5v-319q0 -64 -40.5 -108t-99.5 -44h-135z" />
<glyph unicode="&#xf71c;" horiz-adv-x="1112" d="M55 0v137h64q37 0 37 39v268q0 55 21.5 109.5t58.5 79.5l-117 137q39 122 167.5 210.5t295.5 88.5q189 0 314.5 -108t125.5 -271v-1100h-166l-223 134q-29 -64 -94.5 -105t-139.5 -41q-132 0 -223 60l33 135q39 -25 90 -41.5t92 -16.5q77 0 136.5 52t74.5 131l246 -148 v932q0 117 -72.5 183.5t-193.5 66.5q-100 0 -174.5 -44t-114.5 -118l115 -137q-42 -28 -60 -65.5t-18 -96.5v-319q0 -64 -40.5 -108t-99.5 -44h-135z" />
<glyph unicode="&#xf71d;" horiz-adv-x="1171" d="M90 0v1047h170v-662q0 -34 -2 -72.5t-4 -60.5l-2 -21l29 86l274 381h61l277 -385l27 -102q-9 90 -9 182v256q0 64 -37 101.5t-102 37.5h-37l-22 68l219 307h174l-207 -297q182 -38 182 -258v-608h-149l-346 510l-346 -510h-150z" />
<glyph unicode="&#xf8ff;" horiz-adv-x="1699" d="M307 276v533q0 42 12.5 65t47.5 41l335 172q74 39 142 39q65 0 153 -43l236 -116q49 -24 49 -74q0 -59 -68 -92l-303 -154q-36 -19 -49.5 -49t-13.5 -76v-522zM901 27v489q0 32 7.5 48t29.5 28l297 151q27 15 59 15q43 0 71 -29t28 -82v-260q0 -60 -16.5 -92t-59.5 -55z " />
<glyph horiz-adv-x="399" />
<glyph horiz-adv-x="909" d="M-662 1339q0 75 53 128t128 53t127.5 -53t52.5 -128t-52.5 -127.5t-127.5 -52.5t-128 52.5t-53 127.5zM-555 1341q0 -32 21.5 -53.5t52.5 -21.5t52 21.5t21 53.5q0 31 -21 52.5t-52 21.5t-52.5 -21.5t-21.5 -52.5zM47 905q168 164 389 164q180 0 281.5 -106.5 t101.5 -294.5v-668h-174v682q0 119 -58.5 180.5t-166.5 61.5q-92 0 -174.5 -39t-141.5 -101z" />
<glyph horiz-adv-x="0" />
</font>
</defs>
</svg>
